<?xml version="1.0" standalone="no"?>
<!DOCTYPE svg PUBLIC "-//W3C//DTD SVG 1.1//EN" "http://www.w3.org/Graphics/SVG/1.1/DTD/svg11.dtd" >
<svg xmlns="http://www.w3.org/2000/svg" xmlns:xlink="http://www.w3.org/1999/xlink" version="1.1">
<metadata></metadata>
<defs>
<font id="times_new_romanitalic" horiz-adv-x="1024" >
<font-face units-per-em="2048" ascent="1638" descent="-410" />
<missing-glyph horiz-adv-x="512" />
<glyph horiz-adv-x="0" />
<glyph horiz-adv-x="682" />
<glyph unicode=" "  horiz-adv-x="512" />
<glyph unicode="&#x09;" horiz-adv-x="512" />
<glyph unicode="&#xa0;" horiz-adv-x="512" />
<glyph unicode="!" horiz-adv-x="682" d="M154 69q0 43 30 73t72 30q43 0 73 -30t30 -73q0 -42 -30 -72t-73 -30q-42 0 -72 30t-30 72zM285 330q49 181 69 276.5t45 249.5q50 318 61 371q20 90 65 137q21 23 58 23q28 0 47.5 -22t19.5 -59q0 -41 -19 -104q-41 -138 -162 -453q-58 -149 -64 -166q-19 -56 -82 -253 h-38z" />
<glyph unicode="&#x22;" horiz-adv-x="860" d="M294 803l31 296q13 127 26 171q19 62 54.5 89.5t77.5 27.5q35 0 55.5 -20t20.5 -50q0 -24 -10 -53q-14 -42 -73 -166l-139 -295h-43zM661 803l29 292q12 114 16 134q14 64 34 98q16 25 46.5 42.5t65.5 17.5t54.5 -19t19.5 -50q0 -26 -14 -66q-38 -105 -63 -156l-141 -293 h-47z" />
<glyph unicode="#" d="M147 427v82h187l69 343h-256v80h275l91 455h83l-91 -455h337l97 455h83l-95 -455h170v-80h-185l-70 -343h255v-82h-272l-93 -455h-81l91 455h-339l-95 -455h-83l93 455h-171zM418 509h339l72 343h-341z" />
<glyph unicode="$" d="M86 95l82 283h41q-11 -64 -11 -107q0 -77 42.5 -138t118.5 -87l174 612q-134 105 -187 190.5t-53 182.5q0 150 111.5 240.5t241.5 90.5q33 0 89 -6l23 78h64l-26 -87q69 -20 110 -43.5t95 -71.5l-66 -241h-41q4 46 4 74q0 84 -39 149q-23 38 -79 70l-139 -480 q156 -123 219 -230q44 -76 44 -171q0 -112 -64.5 -217t-170.5 -155.5t-270 -48.5l-32 -117h-66l35 117q-80 16 -133.5 40t-116.5 73zM415 37q30 -3 45 -3q68 0 144.5 38t118 108t41.5 148q0 66 -38.5 131.5t-140.5 153.5zM440 1083q0 -56 31 -109.5t118 -130.5l131 459 q-45 7 -70 7q-86 0 -148 -64.5t-62 -161.5z" />
<glyph unicode="%" horiz-adv-x="1706" d="M144 -54l1434 1441h95l-1434 -1441h-95zM151 934q0 181 125.5 317t264.5 136q94 0 163 -75t69 -197q0 -186 -122 -320t-259 -134q-101 0 -171 76.5t-70 196.5zM280 818q0 -54 30 -86.5t72 -32.5q43 0 75 30q71 66 130.5 213.5t59.5 279.5q0 56 -29.5 89t-69.5 33 q-49 0 -90 -39q-72 -66 -125 -214t-53 -273zM1048 209q0 185 124.5 322.5t259.5 137.5q97 0 167 -75.5t70 -200.5q0 -114 -57.5 -221t-149 -167t-175.5 -60q-100 0 -169.5 74t-69.5 190zM1174 106q0 -55 29.5 -88t69.5 -33q48 0 82 33q71 67 128 216t57 266q0 61 -28.5 94.5 t-67.5 33.5q-51 0 -89 -36q-68 -63 -124.5 -214t-56.5 -272z" />
<glyph unicode="&#x26;" horiz-adv-x="1593" d="M98 308q0 179 151 315q99 88 403 191q-5 38 -7.5 71.5t-2.5 61.5q0 204 107 322t258 118q102 0 161.5 -56.5t59.5 -141.5q0 -107 -86 -205t-308 -170q72 -298 177 -499q155 187 155 299q0 24 -19 40t-70 19v38h405v-38q-88 -12 -143 -48t-130 -144q-99 -144 -164 -229 q119 -201 257 -201q85 0 154 73h45q-60 -82 -127 -118.5t-159 -36.5q-96 0 -166 35.5t-139 119.5q-111 -83 -211.5 -119t-222.5 -36q-181 0 -279.5 94t-98.5 245zM299 358q0 -126 80.5 -208.5t209.5 -82.5q71 0 127.5 21.5t155.5 91.5q-64 100 -123.5 261t-86.5 310 q-193 -72 -278 -176.5t-85 -216.5zM801 1048q0 -34 5 -76.5t15 -93.5q152 65 205 124q73 82 73 179q0 64 -35 101t-91 37q-72 0 -122 -63t-50 -208z" />
<glyph unicode="'" horiz-adv-x="438" d="M269 803l31 296q13 126 26 170q19 63 53.5 90.5t77.5 27.5q36 0 57 -20t21 -51q0 -23 -10 -51q-13 -38 -74 -167l-138 -295h-44z" />
<glyph unicode="(" horiz-adv-x="682" d="M140 237q0 322 149 577q183 312 593 608l24 -35q-185 -137 -302 -307q-146 -212 -239 -512t-93 -546q0 -188 113 -444l-34 -16q-119 227 -171 401q-40 136 -40 274z" />
<glyph unicode=")" horiz-adv-x="682" d="M-223 -407q185 138 302 307q146 212 239 512.5t93 546.5q0 188 -113 444l34 19q119 -226 170 -400q41 -136 41 -274q0 -323 -149 -577q-184 -313 -593 -609z" />
<glyph unicode="*" d="M290 839q0 25 20.5 52.5t61.5 45.5q27 12 123 32q62 13 121 38q-54 27 -129 42q-123 26 -152 47q-45 33 -45 80q0 27 22.5 49.5t52.5 22.5q33 0 70 -21t92 -84.5t112 -98.5q-4 69 -28 137q-34 98 -34 135q0 52 24.5 79t60.5 27q31 0 54 -27t23 -77q0 -45 -26.5 -125.5 t-32.5 -148.5q55 35 99 85q68 79 101 98t67 19q33 0 55.5 -22.5t22.5 -53.5q0 -37 -33 -66t-165 -58q-77 -17 -128 -39q52 -27 127 -41q121 -22 158.5 -55t37.5 -72q0 -30 -22.5 -52t-52.5 -22t-66.5 21t-98.5 94q-41 49 -102 92q2 -57 23 -124q36 -118 36 -161 q0 -40 -24 -67.5t-51 -27.5q-37 0 -67 29q-21 21 -21 67q0 48 23 115.5t29 93t11 75.5q-59 -39 -103 -87q-73 -82 -110 -104q-26 -16 -54 -16q-34 0 -58 23t-24 51z" />
<glyph unicode="+" horiz-adv-x="1382" d="M190 640v82h497v497h82v-497h499v-82h-499v-499h-82v499h-497z" />
<glyph unicode="," horiz-adv-x="512" d="M-21 -225q75 34 122 86q36 40 36 77q0 18 -6 33q-4 8 -28 32t-27 33q-7 17 -7 39q0 43 29.5 74t69.5 31q41 0 72.5 -33t31.5 -83q0 -89 -70 -180t-203 -141z" />
<glyph unicode="-" horiz-adv-x="682" d="M54 378l41 133h518l-41 -133h-518z" />
<glyph unicode="." horiz-adv-x="512" d="M69 78q0 42 29.5 71.5t71.5 29.5q43 0 72.5 -29.5t29.5 -71.5t-30 -71.5t-72 -29.5t-71.5 29.5t-29.5 71.5z" />
<glyph unicode="/" horiz-adv-x="569" d="M-69 -31l767 1453h83l-762 -1453h-88z" />
<glyph unicode="0" d="M122 422q0 229 88 460q103 270 263 410q105 92 235 92q128 0 215.5 -107t87.5 -338q0 -198 -65 -404t-183 -357q-94 -119 -197 -172q-60 -30 -139 -30q-130 0 -217.5 107t-87.5 339zM272 220q0 -104 45 -155.5t109 -51.5q61 0 104 40q115 108 197 369q133 427 133 694 q0 111 -45 163.5t-106 52.5q-58 0 -117.5 -45.5t-123 -189.5t-121.5 -371q-75 -297 -75 -506z" />
<glyph unicode="1" d="M125 0l14 37q82 2 108 13q42 18 63 48q33 46 67 165l232 805q21 73 23 84q3 20 3 39q0 35 -19 55t-52 20q-26 0 -81 -12l-13 36l337 94h48l-322 -1121q-28 -99 -28 -143q0 -37 25.5 -56.5t119.5 -26.5l-10 -37h-515z" />
<glyph unicode="2" d="M32 0v37q516 452 682 709q77 119 77 250q0 104 -64 169.5t-166 65.5q-141 0 -232 -135l-35 16q51 129 149 200.5t212 71.5q129 0 217 -88.5t88 -214.5q0 -88 -31 -163q-48 -117 -177 -262q-196 -222 -523 -511h340q82 0 135 34t76 91h40l-113 -270h-675z" />
<glyph unicode="3" d="M68 90q0 35 25.5 60t62.5 25q26 0 52 -8q16 -5 78.5 -40t97.5 -46.5t72 -11.5q90 0 148.5 104.5t58.5 222.5q0 96 -39.5 171t-124.5 121.5t-186 52.5v29q242 37 361 144q86 76 86 181q0 79 -50 130.5t-121 51.5q-112 0 -199 -139l-37 11q52 116 133.5 175.5t178.5 59.5 q118 0 191 -70.5t73 -178.5q0 -92 -68.5 -177t-235.5 -152q104 -43 157 -123.5t53 -193.5q0 -125 -72 -250.5t-197.5 -194t-263.5 -68.5q-126 0 -191 44q-43 30 -43 70z" />
<glyph unicode="4" d="M64 340l42 140l815 876h76l-259 -892h162l-36 -124h-164l-105 -364h-147l106 364h-490zM192 464h401l182 634z" />
<glyph unicode="5" d="M73 96q0 36 26 61.5t64 25.5q53 0 118 -53q40 -33 66 -44q21 -9 50 -9q113 0 208 112.5t95 292.5q0 125 -50.5 213t-128.5 124t-208 50l215 487h453l-46 -165h-407l-75 -167q162 -26 252 -101q139 -117 139 -327q0 -139 -51.5 -251.5t-126 -188.5t-159.5 -120 q-116 -60 -234 -60q-101 0 -160 44q-40 30 -40 76z" />
<glyph unicode="6" d="M129 372q0 205 95 404.5t257.5 342.5t337.5 211q104 40 257 54v-39q-171 -40 -332 -168.5t-282 -329.5q108 46 176 46q127 0 216.5 -92t89.5 -248q0 -239 -154 -408t-332 -169q-162 0 -245.5 119.5t-83.5 276.5zM271 251q0 -107 54 -168.5t124 -61.5q115 0 214.5 167.5 t99.5 388.5q0 118 -58 182t-140 64q-35 0 -66.5 -11.5t-84.5 -48.5q-143 -305 -143 -512z" />
<glyph unicode="7" d="M232 13l665 1184h-322q-133 0 -181.5 -23.5t-112.5 -114.5h-41l157 297h675v-34l-760 -1346z" />
<glyph unicode="8" d="M78 306q0 113 83.5 222t315.5 210q-89 109 -120.5 180t-31.5 141q0 133 99.5 229t250.5 96q144 0 235 -83t91 -194q0 -110 -73.5 -200t-236.5 -148q96 -104 140.5 -195t44.5 -182q0 -163 -124 -284.5t-306 -121.5q-163 0 -265.5 99t-102.5 231zM212 265 q0 -109 67.5 -175.5t177.5 -66.5q114 0 192 80t78 191q0 84 -45.5 176.5t-167.5 226.5q-149 -62 -225.5 -179.5t-76.5 -252.5zM472 1133q0 -67 29 -124q42 -84 151 -208q108 37 167.5 121t59.5 193q0 102 -57.5 160.5t-150.5 58.5q-89 0 -144 -56t-55 -145z" />
<glyph unicode="9" d="M59 8q103 22 179 64q135 74 242.5 183t191.5 253q-61 -30 -95 -39t-76 -9q-151 0 -231 103t-80 240q0 239 155.5 410t330.5 171q159 0 244 -119.5t85 -279.5q0 -203 -94 -401t-255 -341t-338 -212q-105 -41 -259 -55v32zM372 774q0 -120 55.5 -181.5t139.5 -61.5 q38 0 70 11.5t85 48.5q141 286 141 511q0 109 -53.5 169t-124.5 60q-118 0 -215.5 -165t-97.5 -392z" />
<glyph unicode=":" horiz-adv-x="682" d="M122 81q0 42 29.5 71.5t71.5 29.5t71 -29.5t29 -71.5q0 -41 -29.5 -70.5t-70.5 -29.5q-42 0 -71.5 29.5t-29.5 70.5zM333 805q0 42 30 71.5t72 29.5t72 -29.5t30 -71.5t-30 -72t-72 -30t-72 30t-30 72z" />
<glyph unicode=";" horiz-adv-x="682" d="M36 -222q105 60 130 93.5t25 65.5q0 20 -7 35q-3 9 -25.5 34.5t-26.5 36.5q-8 17 -8 37q0 42 30 73t69 31q42 0 73 -33t31 -86q0 -67 -37.5 -131.5t-103.5 -116.5q-24 -18 -133 -74zM336 802q0 43 29.5 72.5t72.5 29.5q42 0 72 -29.5t30 -72.5q0 -42 -30 -72t-72 -30 t-72 30t-30 72z" />
<glyph unicode="&#x3c;" horiz-adv-x="1382" d="M150 657v49l1076 466v-87l-926 -402l926 -406v-90z" />
<glyph unicode="=" horiz-adv-x="1382" d="M200 475v82h1079v-82h-1079zM200 801v82h1079v-82h-1079z" />
<glyph unicode="&#x3e;" horiz-adv-x="1382" d="M150 187v86l927 402l-927 406v91l1076 -470v-49z" />
<glyph unicode="?" d="M198 70q0 43 29.5 72.5t72.5 29.5q42 0 72 -29.5t30 -72.5q0 -42 -30 -71.5t-72 -29.5t-72 29.5t-30 71.5zM277 1155q0 88 85.5 160t233.5 72q154 0 248.5 -86.5t94.5 -197.5q0 -89 -44 -155q-58 -86 -220 -197.5t-223 -196.5t-92 -221h-38q14 127 61 219t184 237.5 t181 234.5q31 63 31 130q0 79 -56 133.5t-144 54.5q-85 0 -138 -36q-30 -20 -30 -49q0 -20 16.5 -55t16.5 -58q0 -34 -24 -57t-59 -23t-59.5 25t-24.5 66z" />
<glyph unicode="@" horiz-adv-x="1884" d="M97 444q0 264 124 492.5t347.5 357t474.5 128.5q207 0 373.5 -85.5t253.5 -250t87 -349.5q0 -183 -81.5 -362.5t-207.5 -261.5t-263 -82q-76 0 -114.5 36t-38.5 101q0 56 18 147q-148 -179 -237 -232t-157 -53q-71 0 -126 63.5t-55 169.5q0 145 94.5 325t250.5 293 q115 83 206 83q67 0 111.5 -34.5t60.5 -103.5l33 110l157 22l-117 -399q-65 -224 -79 -284t-14 -96q0 -32 21.5 -54t53.5 -22q73 0 175.5 73t175.5 237t73 342q0 171 -82.5 316t-233 222.5t-332.5 77.5q-231 0 -429 -122.5t-313.5 -352.5t-115.5 -478q0 -230 101.5 -418 t285.5 -284.5t396 -96.5q263 0 475.5 141t328.5 412h58q-90 -274 -327 -444t-540 -170q-238 0 -442 112.5t-317 319t-113 454.5zM653 293q0 -63 35.5 -102.5t79.5 -39.5q58 0 122 44t134 135.5t102 183.5q56 159 56 259q0 66 -36.5 105t-88.5 39q-75 0 -152 -79 q-113 -116 -193 -313q-59 -144 -59 -232z" />
<glyph unicode="A" horiz-adv-x="1251" d="M-100 0l11 37q74 3 130.5 49.5t168.5 198.5l810 1102h35l-103 -1128q-8 -79 -8 -104q0 -40 15 -61q19 -29 51.5 -43t109.5 -14l-11 -37h-534l11 37h23q65 0 106 28q29 19 45 63q11 31 21 146l16 172h-388l-138 -187q-47 -63 -59 -90.5t-12 -51.5q0 -32 26 -55t86 -25 l-11 -37h-401zM464 519h341l52 535z" />
<glyph unicode="B" horiz-adv-x="1251" d="M-47 0l13 37q78 2 106 15q40 17 57 45q24 38 64 174l243 821q31 104 31 146q0 37 -27.5 58.5t-104.5 21.5q-17 0 -32 1l14 37h484q122 0 217.5 -38t143 -106t47.5 -144q0 -117 -84.5 -211.5t-275.5 -139.5q123 -46 181 -122t58 -167q0 -101 -52 -193t-133.5 -143 t-196.5 -75q-82 -17 -256 -17h-497zM309 88q108 -14 169 -14q156 0 276.5 94t120.5 255q0 123 -74.5 192t-240.5 69q-32 0 -78 -3zM506 756q65 -2 94 -2q208 0 309.5 90.5t101.5 226.5q0 103 -62 160.5t-198 57.5q-36 0 -92 -12z" />
<glyph unicode="C" horiz-adv-x="1366" d="M138 505q0 222 119 432t326.5 330t418.5 120q99 0 222 -47q54 -20 78 -20t42 10t60 57h37l-101 -439h-36l-4 110q-5 60 -23 107t-54 81.5t-91 54t-122 19.5q-179 0 -313 -98q-171 -125 -268 -353q-80 -188 -80 -381q0 -197 115 -314.5t299 -117.5q139 0 247.5 62 t201.5 191h47q-110 -175 -244 -257.5t-321 -82.5q-166 0 -294 69.5t-195 195.5t-67 271z" />
<glyph unicode="D" horiz-adv-x="1479" d="M-61 0l13 37q79 2 106 14q40 17 59 46q29 42 65 169l240 820q28 97 28 152q0 39 -26 60t-102 21h-22l12 37h433q275 0 407.5 -63t211.5 -198.5t79 -290.5q0 -133 -45.5 -258.5t-103 -201t-176.5 -166.5t-258 -134.5t-347 -43.5h-574zM328 125q0 -16 10.5 -31t28.5 -20 q26 -9 84 -9q157 0 291.5 32.5t220.5 96.5q122 93 195 256t73 371q0 235 -112 349.5t-327 114.5q-53 0 -137 -4l-294 -1015q-33 -114 -33 -141z" />
<glyph unicode="E" horiz-adv-x="1251" d="M-46 0l13 37q78 2 105 14q40 18 58 46q27 41 64 172l238 818q28 99 28 151q0 38 -26.5 59.5t-103.5 21.5h-21l12 37h974l-84 -327h-37q7 46 7 77q0 53 -26 89q-34 46 -99 70q-48 18 -221 18h-172l-155 -536h127q136 0 197 41.5t105 153.5h37l-139 -492h-40q18 62 18 106 q0 43 -17.5 69t-48 38.5t-128.5 12.5h-129l-131 -449q-19 -65 -19 -99q0 -26 25 -46q17 -14 85 -14h120q195 0 312.5 69t210.5 240h37l-128 -377h-1048z" />
<glyph unicode="F" horiz-adv-x="1251" d="M-50 0l13 37q78 2 104 14q40 17 59 46q27 41 64 169l239 817q29 99 29 155q0 26 -13 44.5t-38.5 27.5t-101.5 9l12 37h1052l-100 -343h-38q11 62 11 102q0 66 -36.5 104.5t-93.5 54.5q-40 10 -179 10h-267l-160 -537h178q120 0 179.5 37t122.5 158h38l-141 -494h-40 q15 60 15 99q0 61 -40.5 94.5t-151.5 33.5h-180l-118 -409q-32 -109 -32 -145q0 -37 27.5 -57t134.5 -27l-12 -37h-536z" />
<glyph unicode="G" horiz-adv-x="1479" d="M142 525q0 176 74 334.5t184.5 268t240.5 172.5q179 87 376 87q145 0 262 -48q47 -19 69 -19q25 0 42.5 11.5t45.5 55.5h38l-101 -427h-38q9 75 9 111q0 98 -86.5 173.5t-238.5 75.5q-311 0 -508 -292q-157 -231 -157 -517q0 -190 97 -328t299 -138q50 0 94.5 9t134.5 40 l99 349q21 72 21 115q0 36 -26 55q-42 29 -136 29h-28l11 39h564l-10 -39q-77 -1 -112 -18t-60 -58q-17 -27 -55 -157l-100 -343q-137 -59 -221 -78.5t-177 -19.5q-214 0 -347 80.5t-196.5 213t-63.5 263.5z" />
<glyph unicode="H" horiz-adv-x="1479" d="M-54 0l13 37q79 2 105 14q40 18 59 46q26 41 64 170l240 819q29 100 29 152q0 26 -12.5 44.5t-39 27.5t-103.5 9l12 37h535l-11 -37h-8q-61 0 -91 -14q-47 -20 -69 -53q-30 -44 -66 -166l-98 -335h626l99 335q28 98 28 152q0 26 -12.5 44.5t-38.5 27.5t-102 9l10 37h546 l-12 -37h-8q-63 0 -95 -14q-48 -21 -71 -54q-33 -47 -67 -165l-239 -819q-30 -102 -30 -146q0 -38 26.5 -57.5t126.5 -26.5l-11 -37h-528l14 37q78 2 104 14q40 18 58 46q26 39 64 170l122 415h-629l-123 -415q-29 -100 -29 -146q0 -38 26 -57.5t126 -26.5l-8 -37h-532z" />
<glyph unicode="I" horiz-adv-x="682" d="M-64 0l14 37q84 2 111 14q44 17 65 47q33 47 68 168l236 818q30 102 30 154q0 26 -13 44t-39.5 27.5t-103.5 9.5l12 37h524l-11 -37h-8q-58 0 -87 -14q-45 -20 -68.5 -57t-60.5 -164l-235 -818q-32 -113 -32 -144q0 -25 12.5 -42.5t40 -27t114.5 -15.5l-11 -37h-558z" />
<glyph unicode="J" horiz-adv-x="909" d="M-70 152q0 60 37.5 100t89.5 40q45 0 73.5 -27t28.5 -66q0 -32 -26 -62q-33 -38 -33 -52q0 -21 19 -38t51 -17q46 0 95.5 22t93 67t76 108t66.5 172l49 173l149 514q33 113 33 141q0 38 -30 62t-127 30l11 37h534l-11 -37q-103 -1 -145 -37.5t-88 -195.5l-172 -597 q-49 -169 -99 -258q-67 -120 -180.5 -191t-254.5 -71q-116 0 -178 53.5t-62 129.5z" />
<glyph unicode="K" horiz-adv-x="1366" d="M-55 0l13 37q78 2 105 14q40 18 59 46q26 41 64 170l239 819q27 94 27 151q0 40 -25.5 61t-99.5 21h-20l12 37h509l-10 -37h-8q-57 0 -86 -14q-43 -21 -63 -54t-59 -165l-105 -348l482 363q96 72 126 114q18 26 18 47q0 18 -18.5 35t-56.5 22l10 37h434l-9 -37 q-71 -12 -119.5 -31.5t-99.5 -53.5q-15 -10 -195 -148l-415 -315l336 -519q90 -138 149 -176.5t155 -38.5l-11 -37h-578l9 37q69 7 97.5 33t28.5 59q0 30 -10 58q-8 20 -58 98l-275 431l-133 -449q-33 -108 -33 -145q0 -38 28 -58t138 -27l-16 -37h-536z" />
<glyph unicode="L" horiz-adv-x="1139" d="M-66 0l14 37q80 2 107 13q42 18 62 47q31 46 66 166l239 825q30 102 30 150q0 38 -27.5 59t-103.5 21q-17 0 -27 1l12 37h553l-8 -37q-93 0 -132 -18t-65 -59q-18 -27 -59 -168l-235 -811q-27 -92 -27 -128q0 -24 27 -46q17 -15 77 -15h131q143 0 227 36q62 27 114 81 q28 30 99 149l26 45h37l-132 -385h-1005z" />
<glyph unicode="M" horiz-adv-x="1706" d="M-67 0l11 37h27q99 0 143 50q32 36 67 156l295 1011q-33 34 -63 46t-111 19l10 37h337l125 -1092l787 1092h331v-37q-108 -7 -127 -14q-33 -13 -60.5 -52t-59.5 -150l-251 -860q-22 -75 -22 -118q0 -39 27 -59q38 -29 120 -29h24l-9 -37h-571l10 37h27q76 0 116 22 q31 16 55.5 60.5t68.5 197.5l224 786l-791 -1103h-40l-127 1103l-242 -839q-31 -107 -31 -144t27 -56.5t131 -26.5l-11 -37h-447z" />
<glyph unicode="N" horiz-adv-x="1366" d="M-57 0l14 37q80 2 107 14q41 18 61 47q29 44 65 170l269 943q-39 60 -83.5 82.5t-138.5 25.5l11 37h339l419 -1063l227 794q28 98 28 152q0 37 -26 58t-97 21q-12 0 -25 1l11 37h436l-12 -37h-8q-62 0 -93 -14q-47 -21 -70 -54q-32 -47 -65 -164l-319 -1118h-36 l-451 1144l-241 -845q-27 -96 -27 -147q0 -38 24.5 -57.5t116.5 -26.5l-10 -37h-426z" />
<glyph unicode="O" horiz-adv-x="1479" d="M122 443q0 190 91.5 375.5t218.5 310t271 191.5t306 67q135 0 239 -58.5t163 -173t59 -237.5q0 -218 -126.5 -457.5t-330.5 -365.5t-422 -126q-157 0 -262.5 69.5t-156 183.5t-50.5 221zM329 394q0 -142 73 -251.5t224 -109.5q91 0 178.5 45t182.5 154q119 137 200 349.5 t81 396.5q0 136 -73 240.5t-220 104.5q-100 0 -195.5 -49.5t-189.5 -162t-169 -294.5q-92 -224 -92 -423z" />
<glyph unicode="P" horiz-adv-x="1251" d="M-49 0l11 37q106 0 147.5 36.5t89.5 201.5l224 772q40 139 40 186q0 35 -28.5 58t-125.5 28l11 37h534q210 0 314 -90.5t104 -220.5q0 -103 -66 -200t-196 -157.5t-281 -60.5q-94 0 -239 34l-108 -370q-38 -132 -38 -174q0 -32 27 -53t129 -27l-10 -37h-539zM507 724 q113 -29 182 -29q109 0 198.5 45t140 135t50.5 187q0 101 -62 160t-188 59q-68 0 -165 -17z" />
<glyph unicode="Q" horiz-adv-x="1479" d="M97 -349l410 324q-190 26 -288 167t-98 301q0 219 132.5 453t339 362.5t405.5 128.5q148 0 252.5 -60t161.5 -174.5t57 -234.5q0 -230 -131 -466t-325.5 -357.5t-413.5 -125.5l-258 -209q61 11 113 11q50 0 92.5 -6t182 -37.5t243.5 -31.5q111 0 188.5 38.5t150.5 128.5 l33 -16q-103 -148 -243 -213.5t-297 -65.5q-87 0 -238 34q-231 51 -323 51q-35 0 -57 -5t-66 -24zM329 394q0 -142 73 -251.5t224 -109.5q90 0 178 45t182 153q120 138 201 351t81 396q0 135 -73 240t-221 105q-100 0 -195.5 -49.5t-189.5 -162t-169 -294.5 q-91 -224 -91 -423z" />
<glyph unicode="R" horiz-adv-x="1251" d="M-47 0l11 37q74 3 100 15q41 17 60 46q32 47 67 166l237 819q24 82 24 127q0 46 -38 78q-36 31 -103 31h-4l12 37h442q222 0 320 -84t98 -221q0 -131 -100.5 -239.5t-275.5 -137.5l132 -397q48 -146 96 -190t155 -50l-11 -37h-324l-217 659h-9q-72 0 -147 15l-117 -410 q-23 -80 -23 -135q0 -42 29 -66q22 -18 120 -26l-9 -37h-525zM495 731q64 -9 114 -9q172 0 272 95.5t100 237.5q0 111 -62.5 170t-187.5 59q-32 0 -76 -8z" />
<glyph unicode="S" d="M14 -31l112 503h34q-7 -73 -7 -121q0 -137 87.5 -223t228.5 -86q131 0 199 80.5t68 185.5q0 68 -31 124q-47 83 -251 292q-99 100 -127 149q-46 81 -46 170q0 142 106 243t272 101q56 0 106 -11q31 -6 113 -40q58 -23 64 -25q14 -3 31 -3q29 0 50 15t49 64h38l-104 -450 h-34q4 60 4 97q0 121 -80 198t-211 77q-104 0 -169 -61t-65 -141q0 -70 41.5 -133.5t191 -207t193.5 -224t44 -171.5q0 -103 -54.5 -199.5t-156.5 -149.5t-223 -53q-60 0 -112 11t-166 54q-39 15 -65 15q-59 0 -92 -80h-38z" />
<glyph unicode="T" horiz-adv-x="1139" d="M143 0l11 37h26q78 0 120 25q29 17 52.5 61.5t65.5 188.5l281 963h-81q-117 0 -188.5 -30t-115.5 -87t-72 -162h-37l95 360h1030l-111 -360h-38q19 79 19 141q0 73 -45 110q-34 28 -175 28h-107l-268 -934q-51 -176 -51 -217q0 -38 32 -62.5t113 -24.5h46l-12 -37h-590z " />
<glyph unicode="U" horiz-adv-x="1479" d="M218 349q0 59 11 126q8 44 39 152l134 461q28 100 28 147q0 37 -28.5 57.5t-143.5 26.5l10 37h573l-11 -37q-88 -2 -125.5 -16.5t-64 -51.5t-55.5 -137l-139 -480q-37 -128 -44 -168q-12 -64 -12 -119q0 -121 90 -204.5t241 -83.5q99 0 177 37.5t133.5 105t101.5 183 t81 233.5l120 414q45 155 45 202q0 33 -30.5 56.5t-123.5 28.5l11 37h431l-11 -37q-76 0 -109.5 -14.5t-58.5 -52t-56 -145.5l-147 -503q-71 -245 -134 -361.5t-182.5 -195t-296.5 -78.5q-204 0 -329 115.5t-125 264.5z" />
<glyph unicode="V" horiz-adv-x="1251" d="M256 1319l10 37h535l-11 -37q-87 -1 -119.5 -18t-51.5 -58q-10 -22 -21 -125l-80 -809l529 722q86 117 108 163q15 31 15 54q0 27 -23 47t-86 24l12 37h408l-10 -37q-49 -4 -78 -19q-55 -26 -109.5 -79t-172.5 -214l-764 -1038h-36l112 1129q8 86 8 116q0 45 -33.5 75 t-105.5 30h-36z" />
<glyph unicode="W" horiz-adv-x="1706" d="M249 1319l11 37h508l-11 -37h-5q-98 -1 -134 -37q-38 -38 -52 -183l-75 -732l515 795q1 20 1 34q0 56 -33 86t-142 37l8 37h549l-11 -37q-95 -1 -128 -16q-24 -11 -40.5 -35.5t-26.5 -83.5q-3 -17 -24.5 -232t-64.5 -585l429 652q70 107 88 150t18 73q0 28 -24 49.5 t-82 27.5l8 37h402l-10 -37q-53 -4 -94 -26t-97 -84q-32 -36 -132 -190l-681 -1050h-37l110 1050l-681 -1050h-34l117 1130q7 65 7 100q0 58 -33 88t-119 32z" />
<glyph unicode="X" horiz-adv-x="1251" d="M-137 0l11 37q85 8 139 39q79 47 218 187l394 396l-108 391q-49 180 -85.5 221.5t-127.5 47.5l10 37h485l-12 -37q-67 0 -90.5 -8.5t-36 -26t-12.5 -39.5q0 -24 24 -112l92 -334l213 212q126 126 173 203q17 27 17 48q0 23 -19 36q-27 18 -101 21l11 37h459l-11 -37 q-97 -14 -169.5 -58.5t-197.5 -177.5l-352 -360l99 -363q14 -52 52 -161q24 -70 48 -99t60.5 -44.5t110.5 -18.5l-11 -37h-532l11 37q82 3 118 31q27 20 27 52q0 28 -26 123l-95 341l-318 -321q-93 -95 -111 -125q-11 -18 -11 -35q0 -30 30 -49q14 -8 85 -17l-10 -37h-451z " />
<glyph unicode="Y" horiz-adv-x="1139" d="M184 0l12 37q85 2 113 14q45 18 67 48q34 46 70 165l119 396l-145 468q-39 124 -71.5 154t-113.5 37l10 37h501l-12 -37q-94 -7 -107 -12q-22 -7 -36 -28t-14 -49q0 -41 29 -140l110 -369l258 361q100 141 100 180q0 22 -21.5 36.5t-122.5 20.5l10 37h426l-8 -37 q-62 -8 -85 -17q-36 -15 -71 -47q-47 -42 -136 -165l-332 -458l-100 -335q-37 -126 -37 -174q0 -31 11.5 -47t40.5 -26q38 -12 116 -13l-10 -37h-571z" />
<glyph unicode="Z" horiz-adv-x="1139" d="M-4 0v29l1007 1254h-281q-184 0 -259 -16.5t-128.5 -67t-90.5 -152.5h-35l101 309h941v-37l-1007 -1254h157q254 0 358.5 25t174 87t116.5 176h38l-117 -353h-975z" />
<glyph unicode="[" horiz-adv-x="797" d="M13 -408l526 1795h426l-22 -69h-279l-484 -1654h278l-20 -72h-425z" />
<glyph unicode="\" horiz-adv-x="569" d="M218 1422h71l185 -1453h-74z" />
<glyph unicode="]" horiz-adv-x="797" d="M-205 -408l21 69h280l483 1654h-277l20 72h425l-526 -1795h-426z" />
<glyph unicode="^" horiz-adv-x="864" d="M56 671l431 716h30l425 -716h-92l-350 586l-350 -586h-94z" />
<glyph unicode="_" d="M-17 -358h1059v-84h-1059v84z" />
<glyph unicode="`" horiz-adv-x="682" d="M360 1402h221l109 -344h-32z" />
<glyph unicode="a" d="M48 203q0 159 95.5 335.5t242.5 282.5q115 84 217 84q61 0 101.5 -32t61.5 -106l36 114l159 24l-195 -678l-22 -91q-3 -13 -3 -22q0 -16 10 -28q8 -9 20 -9q13 0 34 16q39 29 104 120l34 -24q-69 -104 -142 -158.5t-135 -54.5q-43 0 -64.5 21.5t-21.5 62.5q0 49 22 129 l21 75q-131 -171 -241 -239q-79 -49 -155 -49q-73 0 -126 60.5t-53 166.5zM208 239q0 -68 34 -107.5t78 -39.5q109 0 237 161q171 214 171 439q0 85 -33 123t-90 38q-64 0 -136 -60q-102 -85 -181.5 -252t-79.5 -302z" />
<glyph unicode="b" d="M54 89l304 1047q35 121 35 142q0 26 -16 39q-23 18 -68 18q-21 0 -64 -7v38l346 56l-197 -691q96 100 167.5 137t149.5 37q110 0 180 -73t70 -198q0 -161 -92 -320.5t-231 -248.5t-274 -89q-151 0 -310 113zM204 78q100 -55 176 -55q88 0 182.5 64.5t164 217.5t69.5 309 q0 92 -45.5 144t-107.5 52q-93 0 -182 -74.5t-127 -207.5z" />
<glyph unicode="c" horiz-adv-x="909" d="M56 271q0 153 85.5 301t230 240.5t283.5 92.5q109 0 163 -45.5t54 -111.5q0 -62 -38 -106q-28 -34 -69 -34q-31 0 -51.5 20t-20.5 50q0 19 7.5 35t31 38.5t28.5 32.5t5 21q0 21 -19 35q-29 20 -82 20q-98 0 -194 -69t-164 -196q-82 -154 -82 -308q0 -102 58 -161.5 t158 -59.5q77 0 152.5 38.5t169.5 139.5l29 -26q-104 -125 -210 -183.5t-224 -58.5q-142 0 -221.5 80t-79.5 215z" />
<glyph unicode="d" d="M39 227q0 149 95 318t251 275q123 85 226 85q54 0 93 -22t77 -73l98 348q11 37 18 59q12 40 12 66q0 21 -15 35q-21 17 -54 17q-23 0 -76 -7v37l344 57l-344 -1180q-28 -96 -28 -126q0 -10 8.5 -19t17.5 -9q13 0 31 13q34 24 114 120l34 -21q-72 -100 -145.5 -162 t-137.5 -62q-34 0 -56 24t-22 68q0 57 30 153l39 124q-145 -224 -264 -310q-82 -59 -157 -59q-76 0 -132.5 67.5t-56.5 183.5zM207 248q0 -75 33 -114.5t79 -39.5q104 0 261 225t157 393q0 64 -37 103t-94 39q-126 0 -262.5 -208t-136.5 -398z" />
<glyph unicode="e" horiz-adv-x="909" d="M64 271q0 149 92 305t231 242.5t286 86.5q106 0 157 -43t51 -102q0 -83 -66 -159q-87 -99 -256 -160q-112 -41 -315 -64q-7 -50 -7 -83q0 -89 63 -151.5t153 -62.5q72 0 138.5 29.5t197.5 130.5l21 -29q-237 -235 -452 -235q-146 0 -220 92t-74 203zM251 426 q148 17 241 58q123 55 184.5 131.5t61.5 145.5q0 42 -26.5 68t-75.5 26q-102 0 -216.5 -108.5t-168.5 -320.5z" />
<glyph unicode="f" horiz-adv-x="569" d="M-357 -341q0 32 25.5 55.5t62.5 23.5q27 0 45.5 -17t18.5 -39t-21 -41q-16 -14 -16 -21q0 -9 7 -14q9 -7 28 -7q43 0 90.5 27t84.5 80.5t70 154.5q14 42 75 277l174 677h-174l14 66q83 0 116 11.5t60.5 44t71.5 121.5q59 120 113 186q74 89 155.5 133.5t153.5 44.5 q76 0 122 -38.5t46 -83.5q0 -35 -23 -59t-59 -24q-31 0 -50.5 18t-19.5 43q0 16 13 39.5t13 31.5q0 14 -9 21q-13 10 -38 10q-63 0 -113 -40q-67 -53 -120 -166q-27 -59 -99 -293h147l-18 -66h-146l-110 -437q-73 -289 -147 -447q-105 -223 -226 -308q-92 -65 -184 -65 q-60 0 -102 36q-31 25 -31 65z" />
<glyph unicode="g" d="M-55 -230q0 43 28.5 89.5t71.5 76.5q27 19 153 90q-46 36 -46 79q0 40 40.5 85t171.5 99q-110 21 -174.5 92t-64.5 158q0 142 124.5 254t331.5 112q75 0 123 -15t93 -47h270l-29 -104h-167q19 -54 19 -101q0 -132 -112 -235q-113 -103 -310 -114q-106 -32 -159 -76 q-20 -16 -20 -33q0 -20 18 -36.5t91 -33.5l194 -45q161 -38 213 -90q51 -53 51 -122q0 -82 -60.5 -150t-177 -106.5t-257.5 -38.5q-124 0 -226 29.5t-146 79.5t-44 103zM77 -209q0 -66 60 -109q86 -62 252 -62q143 0 244.5 48.5t101.5 125.5q0 39 -37.5 74t-145.5 57 q-59 12 -311 75q-81 -37 -122.5 -95t-41.5 -114zM299 508q0 -77 47 -126t114 -49q53 0 102.5 29t83.5 80t54 130t20 114q0 80 -44.5 126t-116.5 46q-113 0 -186.5 -113.5t-73.5 -236.5z" />
<glyph unicode="h" d="M41 0l329 1144l35 124q0 26 -21.5 46t-52.5 20q-18 0 -55 -6l-21 -3v39l346 58l-281 -971q182 274 284 364t195 90q48 0 80 -33t32 -88q0 -66 -28 -160l-122 -419q-23 -76 -23 -84q0 -14 8.5 -23t19.5 -9q13 0 30 13q57 44 113 122l31 -19q-34 -53 -94.5 -116.5t-104 -88 t-77.5 -24.5q-37 0 -60.5 23.5t-23.5 60.5q0 44 35 164l115 400q22 75 22 118q0 20 -12.5 32t-32.5 12q-29 0 -66 -22q-68 -42 -157 -156q-24 -31 -160 -250q-42 -70 -69 -153l-64 -205h-150z" />
<glyph unicode="i" horiz-adv-x="569" d="M88 62q0 37 25 123l130 448q32 110 32 138q0 22 -15.5 36t-42.5 14q-22 0 -91 -11v39l345 56l-198 -701q-20 -71 -20 -85q0 -16 9.5 -26t22.5 -10q15 0 36 16q57 45 115 128l35 -23q-68 -104 -160 -175q-68 -53 -130 -53q-41 0 -67 24.5t-26 61.5zM358 1202q0 42 29 71 t71 29t71 -29t29 -71q0 -41 -29.5 -70.5t-70.5 -29.5t-70.5 29.5t-29.5 70.5z" />
<glyph unicode="j" horiz-adv-x="569" d="M-352 -344q0 31 24.5 54.5t56.5 23.5q29 0 51 -19q18 -15 18 -34q0 -26 -25 -45q-14 -11 -14 -18l2 -5q3 -4 9 -6t18 -2q81 0 138.5 51.5t102.5 205.5l224 768q33 113 33 125q0 24 -21.5 43t-54.5 19q-13 0 -30 -3q-13 -2 -38 -6v35l343 62l-259 -895 q-69 -240 -189.5 -346t-260.5 -106q-63 0 -95.5 29t-32.5 69zM368 1200q0 42 29.5 71.5t71.5 29.5t71.5 -29.5t29.5 -71.5t-29.5 -71.5t-71.5 -29.5t-71.5 29.5t-29.5 71.5z" />
<glyph unicode="k" horiz-adv-x="909" d="M20 0l332 1141l28 97q5 25 5 44q0 24 -18.5 40t-53.5 16q-23 0 -73 -10v35l346 59l-284 -983l114 97q187 158 243 234q18 25 18 38q0 9 -6 17t-23.5 13t-61.5 5h-35l11 38h437l-10 -38q-75 -4 -129.5 -23.5t-105.5 -57.5q-101 -75 -133 -104l-86 -76q22 -72 54 -201 q54 -214 73 -254t39 -40q17 0 40 17q52 38 111 121l35 -25q-109 -137 -167 -180.5t-106 -43.5q-42 0 -65 33q-40 59 -133 465l-137 -119l-103 -355h-156z" />
<glyph unicode="l" horiz-adv-x="569" d="M79 62q0 36 32 148l271 938q33 115 33 132q0 24 -19 39.5t-59 15.5q-23 0 -70 -7v37l342 57l-342 -1190q-25 -89 -25 -109q0 -15 9.5 -25t23.5 -10q19 0 41 17q52 41 109 127l30 -31q-95 -134 -175 -187q-59 -38 -112 -38q-38 0 -63.5 26t-25.5 60z" />
<glyph unicode="m" horiz-adv-x="1479" d="M35 0l185 648l24 84q7 19 7 28q0 22 -20 39.5t-51 17.5q-13 0 -72 -12l-9 37l345 63l-130 -451q87 159 148 239q95 124 185 180q53 32 111 32q50 0 83 -32t33 -82q0 -49 -23 -128l-71 -254q163 305 309 428q81 68 160 68q46 0 75.5 -31.5t29.5 -97.5q0 -58 -18 -123 l-110 -389q-36 -127 -36 -141t9 -24q6 -7 16 -7t35 19q57 44 107 116l33 -21q-25 -40 -88.5 -110t-108.5 -95t-83 -25q-35 0 -58.5 24t-23.5 59q0 48 41 193l91 321q31 111 33 123q3 19 3 37q0 25 -11 39q-12 14 -27 14q-42 0 -89 -43q-138 -127 -258 -356 q-79 -151 -148 -387h-151l171 605q28 98 28 131q0 27 -11 40t-27 13q-33 0 -70 -24q-60 -39 -154.5 -167t-146.5 -245q-25 -55 -119 -353h-148z" />
<glyph unicode="n" d="M39 0l182 626q32 113 32 136q0 22 -17.5 38.5t-43.5 16.5q-12 0 -42 -4l-38 -6l-6 36l346 62l-133 -455q187 279 286.5 367t191.5 88q50 0 82.5 -33t32.5 -86q0 -60 -29 -160l-122 -421q-21 -73 -21 -89q0 -14 8 -23.5t17 -9.5q12 0 29 13q53 42 116 128l31 -19 q-93 -133 -176 -190q-58 -39 -104 -39q-37 0 -59 22.5t-22 60.5q0 48 34 165l116 402q22 75 22 117q0 20 -13 32.5t-32 12.5q-28 0 -67 -24q-74 -45 -154 -148.5t-169 -264.5q-47 -85 -78 -186l-50 -165h-150z" />
<glyph unicode="o" d="M60 290q0 147 84.5 295t226 234t273.5 86t217.5 -87t85.5 -226q0 -150 -79.5 -297t-221.5 -233t-276 -86q-137 0 -223.5 87.5t-86.5 226.5zM224 224q0 -95 48 -146.5t121 -51.5q141 0 264.5 209.5t123.5 425.5q0 93 -45.5 142.5t-117.5 49.5q-147 0 -270.5 -210.5 t-123.5 -418.5z" />
<glyph unicode="p" d="M-226 -438l10 37q93 4 125.5 32t68.5 155l253 876q23 83 23 103q0 27 -15.5 42t-47.5 15q-29 0 -81 -7v39l343 51l-69 -230q109 128 194.5 179t174.5 51t152 -70.5t63 -183.5q0 -220 -179 -447.5t-417 -227.5q-50 0 -88.5 11t-86.5 39l-73 -258q-22 -76 -22 -99 q0 -22 11.5 -37.5t37.5 -24t103 -8.5l-9 -37h-471zM220 105q62 -74 167 -74q52 0 106 29t105.5 86t92.5 131.5t73.5 175.5t32.5 200q0 80 -36.5 122.5t-85.5 42.5q-108 0 -213.5 -124t-154.5 -290z" />
<glyph unicode="q" d="M45 233q0 151 93 317t245 272q118 83 214 83q71 0 117 -34.5t69 -110.5l31 112l157 33l-327 -1130q-22 -78 -22 -100q0 -23 11.5 -39.5t31.5 -24.5q31 -12 81 -12l-10 -37h-479l10 37q98 8 122 17q38 15 62.5 49t54.5 143l138 493q-132 -193 -246 -271q-81 -55 -151 -55 q-100 0 -151 81.5t-51 176.5zM216 250q0 -75 33.5 -114t81.5 -39q61 0 138 68q117 103 195.5 264.5t78.5 280.5q0 64 -39 105t-96 41q-122 0 -257 -210t-135 -396z" />
<glyph unicode="r" horiz-adv-x="797" d="M42 0l185 621q32 108 32 154q0 18 -15 30q-20 16 -53 16q-21 0 -77 -9l-7 37l345 56l-144 -486q175 299 318 418q81 68 132 68q33 0 52 -19.5t19 -56.5q0 -66 -34 -126q-24 -45 -69 -45q-23 0 -39.5 15t-20.5 46q-2 19 -9 25q-8 8 -19 8q-17 0 -32 -8q-26 -14 -79 -78 q-83 -98 -180 -254q-42 -66 -72 -149q-42 -114 -48 -137l-32 -126h-153z" />
<glyph unicode="s" horiz-adv-x="797" d="M-19 -24l61 324h37q6 -152 63 -215t156 -63q76 0 120.5 42.5t44.5 104.5q0 40 -16 74q-28 60 -117.5 166t-115 159t-25.5 106q0 97 70.5 164t181.5 67q32 0 58 -5q14 -3 65.5 -22.5t68.5 -19.5q43 0 72 47h38l-61 -307h-37q-5 134 -57 195t-129 61q-62 0 -98.5 -34 t-36.5 -82q0 -33 14.5 -63t63.5 -84q130 -142 168 -214t38 -136q0 -104 -86.5 -184.5t-218.5 -80.5q-72 0 -166 34q-33 12 -51 12q-45 0 -68 -46h-37z" />
<glyph unicode="t" horiz-adv-x="569" d="M84 74q0 54 32 165l167 579h-151l10 39q110 30 183 89.5t163 206.5h44l-78 -272h157l-17 -63h-156l-172 -590q-28 -95 -28 -123q0 -17 8 -26t19 -9q25 0 66 35q24 20 107 123l33 -25q-92 -134 -174 -189q-56 -38 -113 -38q-44 0 -72 27.5t-28 70.5z" />
<glyph unicode="u" d="M60 691q75 116 159 171q64 43 118 43q37 0 60.5 -23.5t23.5 -60.5q0 -54 -40 -193l-94 -323q-39 -132 -39 -167q0 -19 12.5 -30.5t33.5 -11.5q33 0 86 33t141.5 146.5t146 213t122.5 316.5l22 76h152l-174 -596q-39 -133 -39 -168q0 -18 6.5 -26.5t17.5 -8.5 q17 0 37.5 15.5t103.5 123.5l30 -23q-79 -125 -162 -184q-55 -38 -106 -38q-39 0 -61 22t-22 57q0 34 13 90q16 74 91 322q-170 -279 -284.5 -385t-212.5 -106q-46 0 -78 32t-32 81q0 75 44 230l87 309q32 111 32 138q0 12 -8.5 20.5t-18.5 8.5q-21 0 -42 -15t-95 -111z" />
<glyph unicode="v" horiz-adv-x="909" d="M44 843l289 62q31 -74 50 -151q27 -113 44 -268q8 -78 22 -330q125 138 149 171q132 179 152 210q33 53 46 93q11 30 11 57q0 26 -46.5 60t-46.5 76q0 32 25.5 57t60.5 25q42 0 74 -34.5t32 -85.5t-16 -98q-26 -76 -97 -185.5t-229 -293.5q-20 -23 -222 -232h-37 q-24 633 -100 790q-25 51 -83 51q-25 0 -71 -9z" />
<glyph unicode="w" horiz-adv-x="1366" d="M35 802v36l287 67q60 -167 78 -513q6 -131 10 -165l411 678h37l69 -750q174 204 278 383q61 105 61 152q0 22 -10 39q-4 9 -31.5 26.5t-38.5 36t-11 39.5q0 31 23 52.5t59 21.5q41 0 69.5 -30.5t28.5 -81.5q0 -52 -15 -97q-30 -86 -117 -222q-106 -163 -218.5 -302.5 t-167.5 -195.5h-37l-65 692l-413 -692h-44q-7 427 -43 674q-15 103 -50 135q-25 23 -76 23q-29 0 -74 -6z" />
<glyph unicode="x" horiz-adv-x="909" d="M-72 64q0 33 22 55t54 22t68 -32q26 -23 40 -23q12 0 31 16q47 38 128 164t106 182q-62 243 -67 257q-23 65 -60 92t-109 27q-23 0 -53 -2v36l267 47q49 -52 74 -104q18 -36 59 -189l88 132q35 48 85 91.5t88 59.5q24 10 53 10q43 0 68.5 -23t25.5 -56q0 -38 -15 -52 q-28 -25 -64 -25q-21 0 -45 9q-47 16 -63 16q-24 0 -57 -28q-62 -52 -148 -201l82 -344q19 -79 32 -94.5t26 -15.5q21 0 49 23q55 46 94 120l35 -18q-63 -118 -160 -196q-55 -44 -93 -44q-56 0 -89 63q-21 39 -87 336q-156 -271 -250 -349q-61 -50 -118 -50q-40 0 -73 29 q-24 22 -24 59z" />
<glyph unicode="y" horiz-adv-x="909" d="M-164 -364q0 39 32.5 71t70.5 32q20 0 33 -9q8 -5 17.5 -28.5t17.5 -31.5q5 -5 12 -5q6 0 21 10q55 34 128 108q96 98 142 160l-56 634q-14 157 -42 191t-94 34q-21 0 -75 -6l-9 37l293 72q34 -58 47 -108.5t26 -198.5l44 -492q60 72 174 228q55 76 136 207q49 80 60 112 q6 16 6 33q0 11 -7 18t-36.5 16.5t-49 35t-19.5 58.5q0 41 24 66t60 25q44 0 75 -36.5t31 -100.5q0 -79 -54 -180.5t-208 -311.5t-373 -458q-151 -171 -224 -215.5t-125 -44.5q-31 0 -54.5 23.5t-23.5 54.5z" />
<glyph unicode="z" horiz-adv-x="797" d="M-57 0v29l692 720h-288q-91 0 -110 -5q-28 -6 -55.5 -31.5t-56.5 -84.5h-38l85 253h635v-25l-692 -720h293q104 0 132 8t51.5 34t52.5 94h37l-87 -272h-651z" />
<glyph unicode="{" horiz-adv-x="819" d="M141 470l12 41q103 13 177 67t104 123q20 47 28 185.5t63 242.5t178.5 189t268.5 104l-10 -35q-113 -26 -183 -80t-102 -129q-22 -52 -29.5 -181.5t-43 -210.5t-131 -163.5t-243.5 -129.5q102 -43 154 -115t52 -158q0 -87 -78 -233.5t-78 -213.5q0 -65 38 -110t130 -70 l-11 -35q-131 19 -204.5 100t-73.5 193q0 102 77.5 248t77.5 203q0 64 -43.5 110t-129.5 58z" />
<glyph unicode="|" horiz-adv-x="563" d="M237 -442v1864h83v-1864h-83z" />
<glyph unicode="}" horiz-adv-x="819" d="M-153 -442l10 35q113 27 183 80.5t102 128.5q22 53 29.5 182.5t38.5 199.5q39 91 135 173.5t244 130.5q-102 42 -154 114.5t-52 158.5q0 87 78 233.5t78 212.5t-38 111t-130 69l10 35q131 -18 205 -99t74 -193q0 -103 -78 -248.5t-78 -202.5q0 -64 44 -110t130 -58 l-12 -41q-102 -13 -176 -67t-105 -123q-20 -46 -28 -185.5t-63.5 -243.5t-178.5 -189t-268 -104z" />
<glyph unicode="~" horiz-adv-x="1108" d="M20 400q6 135 74 206.5t160 71.5q44 0 90 -14q104 -30 273.5 -102.5t238.5 -72.5q75 0 126 48t60 138h45q-4 -130 -74 -203.5t-171 -73.5q-46 0 -99 15.5t-274 105.5q-154 64 -219 64q-70 0 -118 -43t-68 -140h-44z" />
<glyph unicode="&#xa1;" horiz-adv-x="797" d="M144 -361q0 43 19 106q42 141 162 452q57 148 63 165q19 53 83 253h38q-49 -181 -69 -276t-45 -249q-50 -318 -61 -371q-20 -90 -65 -138q-22 -23 -59 -23q-27 0 -46.5 22t-19.5 59zM435 876q0 43 30 73t73 30q42 0 72 -30t30 -73q0 -42 -30 -72t-72 -30q-43 0 -73 30 t-30 72z" />
<glyph unicode="&#xa2;" d="M114 267q0 223 158.5 411.5t375.5 226.5l120 398h56l-116 -398q117 0 168.5 -44.5t51.5 -117.5q0 -60 -31 -97t-72 -37q-33 0 -52.5 18.5t-19.5 48.5q0 21 8 37t36 46t28 50q0 11 -9 21q-13 16 -35.5 23t-85.5 7l-236 -791l41 -3q168 0 324 180l26 -25 q-87 -120 -186 -177t-232 -68l-108 -353h-58l107 353q-121 13 -190 91t-69 200zM284 291q0 -83 34 -138q26 -39 87 -71l229 766q-90 -39 -147 -92q-98 -93 -150.5 -215.5t-52.5 -249.5z" />
<glyph unicode="&#xa3;" d="M49 89q0 67 56.5 118t140.5 51q15 0 34.5 -1t42.5 -4q20 106 51 404h-231l25 85h219q84 380 224 525q113 117 270 117q87 0 140 -48t53 -111q0 -41 -25 -66.5t-61 -25.5q-40 0 -68 31q-15 17 -28.5 71.5t-23.5 66.5q-22 25 -51 25q-38 0 -69 -32q-47 -48 -89 -185 q-18 -61 -83 -368h270l-25 -85h-265q-55 -244 -136 -432q39 -15 96 -40q91 -41 142 -55t93 -14q43 0 81 20t70 60h44q-57 -113 -135 -170t-177 -57q-63 0 -119.5 25t-160.5 107q-44 -66 -89.5 -99t-92.5 -33q-53 0 -88 33.5t-35 86.5zM102 88q0 -30 19 -51t45 -21 q33 0 65.5 28.5t59.5 100.5q-29 16 -52.5 24t-41.5 8q-39 0 -67 -26.5t-28 -62.5z" />
<glyph unicode="&#xa4;" d="M90 253l144 145q-102 117 -102 282q0 157 102 283l-144 141l56 57l146 -142q52 45 132 73.5t153 28.5q69 0 145.5 -26t134.5 -76l143 142l58 -57l-144 -141q103 -132 103 -281q0 -154 -103 -284l144 -145l-58 -55l-143 143q-134 -103 -270 -103q-88 0 -171.5 30.5 t-123.5 72.5l-146 -143zM213 677q0 -147 106 -253t255 -106t256 107t107 254q0 91 -49 179t-135 135t-178 47q-151 0 -256.5 -106.5t-105.5 -256.5z" />
<glyph unicode="&#xa5;" d="M-14 377l20 66h433l63 209h-453l19 67h416l-123 403q-36 117 -66 151.5t-85 44.5l9 38h445l-10 -38q-88 0 -118 -23.5t-30 -61.5q0 -42 25 -127l114 -387l275 379q90 126 90 168q0 17 -20 31q-28 18 -110 21l9 38h386l-11 -38q-58 -6 -107 -41t-131 -148l-300 -410h395 l-20 -67h-424l-13 -18l-57 -191h452l-21 -66h-451l-30 -100q-32 -108 -32 -160q0 -35 24 -53q31 -23 129 -27l-14 -37h-515l10 37q84 5 107 16q38 19 62 56q17 25 54 149l36 119h-432z" />
<glyph unicode="&#xa6;" horiz-adv-x="563" d="M237 300h83v-742h-83v742zM237 680v742h83v-742h-83z" />
<glyph unicode="&#xa7;" d="M-4 -181q0 36 21 59.5t46 23.5q28 0 51.5 -24t34.5 -89q14 -87 60 -126q45 -39 115 -39q94 0 161.5 64t67.5 155q0 68 -27 131t-102 151q-145 168 -179.5 239.5t-34.5 157.5q0 115 70 185.5t182 70.5q35 0 82 -12q-64 86 -87.5 148t-23.5 133q0 151 99 251.5t239 100.5 q115 0 194 -69t79 -141q0 -31 -25 -59q-16 -19 -46 -19t-48 20t-29.5 90t-44.5 96q-50 39 -113 39q-86 0 -151 -65t-65 -155q0 -79 29 -140t137.5 -181.5t149.5 -214.5q28 -65 28 -140q0 -113 -72 -186.5t-175 -73.5q-42 0 -97 22q71 -99 95.5 -162t24.5 -130 q0 -144 -100.5 -245t-247.5 -101q-132 0 -215 73.5t-83 161.5zM300 598q0 -131 107.5 -246.5t214.5 -115.5q56 0 99 43.5t43 104.5q0 87 -50 176t-123 136t-138 47q-63 0 -108 -43.5t-45 -101.5z" />
<glyph unicode="&#xa8;" horiz-adv-x="682" d="M268 1232q0 45 31.5 76.5t75.5 31.5q45 0 76.5 -31.5t31.5 -76.5q0 -44 -31.5 -75.5t-76.5 -31.5q-44 0 -75.5 31.5t-31.5 75.5zM624 1232q0 45 31 76.5t76 31.5t76 -31.5t31 -76.5q0 -44 -31 -75.5t-76 -31.5q-44 0 -75.5 31.5t-31.5 75.5z" />
<glyph unicode="&#xa9;" horiz-adv-x="1556" d="M139 678q0 185 95.5 355.5t265.5 262t348 91.5q179 0 349 -91.5t265.5 -262t95.5 -355.5q0 -184 -94 -353t-263 -262.5t-353 -93.5t-352.5 93.5t-262.5 262.5t-94 353zM201 678q0 -168 85.5 -322t239.5 -240t322 -86t322.5 86t240 240t85.5 322q0 169 -87 324.5 t-242 239.5t-319 84q-163 0 -318 -84t-242 -239.5t-87 -324.5zM390 672q0 192 140 327.5t358 135.5q46 0 76.5 -6t108.5 -32q25 -8 37 -8q16 0 27 8.5t22 36.5h40l20 -280h-39q-36 119 -114.5 177.5t-188.5 58.5q-82 0 -146 -34t-105 -91q-30 -43 -50 -114t-20 -150 q0 -212 91 -312.5t240 -100.5q195 0 312 162l37 -19q-139 -203 -383 -203q-200 0 -331.5 129.5t-131.5 314.5z" />
<glyph unicode="&#xaa;" horiz-adv-x="565" d="M178 967q0 91 59.5 196t146 164.5t152.5 59.5q42 0 67.5 -18t41.5 -64l23 68l103 14l-126 -407q-16 -51 -16 -71q0 -7 5 -13t12 -6q10 0 25 11q24 17 66 71l23 -14q-92 -128 -180 -128q-28 0 -42 13.5t-14 35.5q0 31 14 79l14 45q-86 -103 -155 -143q-53 -30 -101 -30 q-50 0 -84 37t-34 100zM282 989q0 -41 21.5 -65.5t52.5 -24.5q72 0 169.5 117.5t97.5 247.5q0 48 -21.5 72t-57.5 24q-74 0 -150 -96q-112 -141 -112 -275z" />
<glyph unicode="&#xab;" d="M84 442l469 478h53l-340 -478l109 -473h-44zM467 442l467 478h54l-340 -478l111 -473h-44z" />
<glyph unicode="&#xac;" horiz-adv-x="1382" d="M150 797v81h1080v-406h-79v325h-1001z" />
<glyph unicode="&#xad;" horiz-adv-x="682" d="M54 378l41 133h518l-41 -133h-518z" />
<glyph unicode="&#xae;" horiz-adv-x="1556" d="M139 678q0 185 95.5 355.5t265.5 262t348 91.5q179 0 349 -91.5t265.5 -262t95.5 -355.5q0 -184 -94 -353t-263 -262.5t-353 -93.5t-352.5 93.5t-262.5 262.5t-94 353zM201 678q0 -168 85.5 -322t239.5 -240t322 -86t322.5 86t240 240t85.5 322q0 169 -87 324.5 t-242 239.5t-319 84q-163 0 -318 -84t-242 -239.5t-87 -324.5zM444 249v33q48 0 68 11.5t29 33.5q7 16 7 93v523q0 74 -3 87q-7 23 -25.5 35.5t-63.5 12.5v36h386q145 0 221 -65.5t76 -158.5q0 -76 -51.5 -133.5t-170.5 -88.5l209 -298q38 -53 68 -73q19 -12 53 -15v-33 h-184l-294 405h-76v-309q6 -33 28.5 -48t89.5 -15v-33h-367zM693 697q118 0 172.5 23t83.5 64.5t29 94.5q0 81 -56.5 136t-144.5 55q-38 0 -84 -16v-357z" />
<glyph unicode="&#xaf;" d="M197 1462v84h1059v-84h-1059z" />
<glyph unicode="&#xb0;" horiz-adv-x="819" d="M212 1078q0 128 89.5 218t217.5 90q129 0 218.5 -90t89.5 -218q0 -127 -90 -217t-218 -90q-127 0 -217 90t-90 217zM296 1079q0 -92 65 -157.5t158 -65.5q92 0 157.5 65.5t65.5 157.5q0 93 -65 158t-158 65t-158 -65t-65 -158z" />
<glyph unicode="&#xb1;" horiz-adv-x="1124" d="M53 141v81h498v418h-498v82h498v497h80v-497h500v-82h-500v-418h501l-1 -81h-1078z" />
<glyph unicode="&#xb2;" horiz-adv-x="614" d="M111 662v27q310 234 405 365q43 58 43 121q0 51 -33 83.5t-88 32.5q-80 0 -135 -73l-39 16q31 70 92 110t135 40q85 0 138.5 -49.5t53.5 -117.5q0 -34 -16 -73t-73 -104.5t-150 -143.5l-181 -147h177q88 0 115 64h48l-72 -151h-420z" />
<glyph unicode="&#xb3;" horiz-adv-x="614" d="M132 714q0 20 17.5 35t47.5 15q29 0 75 -22q66 -32 104 -32q36 0 66 39q41 52 41 122q0 72 -51 119t-155 51v26q150 19 219 74q44 36 44 85q0 39 -25 63.5t-64 24.5q-59 0 -111 -73l-42 11q67 132 198 132q78 0 123 -40t45 -95q0 -45 -33 -83q-43 -50 -134 -84 q112 -54 112 -163q0 -103 -92.5 -186.5t-235.5 -83.5q-81 0 -123 27q-26 17 -26 38z" />
<glyph unicode="&#xb4;" horiz-adv-x="682" d="M409 1059l103 343h225l-294 -343h-34z" />
<glyph unicode="&#xb5;" horiz-adv-x="1180" d="M-46 -363q0 24 9.5 50t67.5 138q33 64 62 142.5t78 247.5l194 666h152l-147 -510q-33 -115 -37.5 -136.5t-4.5 -45.5q0 -60 27 -89.5t71 -29.5q43 0 116 54t173 216q23 50 55 161l111 380h151l-167 -578l-28 -95q-5 -29 -5 -56q0 -40 16.5 -59.5t41.5 -19.5q28 0 55 22 q36 30 81 120h36q-28 -87 -117.5 -163t-135.5 -76q-54 0 -92.5 39.5t-38.5 107.5q0 30 5 79q-78 -114 -165.5 -170t-156.5 -56q-61 0 -105 30q-28 20 -57 78q-28 -93 -38.5 -149.5t-23.5 -207.5q-9 -97 -38.5 -132.5t-70.5 -35.5q-33 0 -50 19q-24 26 -24 59z" />
<glyph unicode="&#xb6;" horiz-adv-x="1071" d="M108 981q0 110 43 180q58 96 154.5 145.5t252.5 49.5h495v-55h-133v-1743h-72v1743h-187v-1743h-73v1043q-191 8 -285.5 50.5t-144.5 131t-50 198.5z" />
<glyph unicode="&#xb7;" horiz-adv-x="512" d="M210 678q0 46 32.5 78.5t78.5 32.5q47 0 79 -32.5t32 -78.5t-32.5 -78.5t-78.5 -32.5t-78.5 32.5t-32.5 78.5z" />
<glyph unicode="&#xb8;" horiz-adv-x="682" d="M-37 -348l12 33q50 -12 86 -12q64 0 99.5 30.5t35.5 73.5q0 37 -21 55q-28 23 -84 24l110 174h59l-45 -76q59 -13 91 -52t32 -94q0 -67 -56 -115q-76 -63 -178 -63q-55 0 -141 22z" />
<glyph unicode="&#xb9;" horiz-adv-x="614" d="M163 662l14 31q70 1 87 15q26 20 52 99l137 411q15 44 15 62q0 14 -8 21t-23 7q-14 0 -56 -7l-13 30l255 53l-193 -586q-16 -47 -16 -68q0 -18 10 -25q13 -10 50 -11q10 0 28 -1l-10 -31h-329z" />
<glyph unicode="&#xba;" horiz-adv-x="635" d="M228 1018q0 138 117.5 253.5t260.5 115.5q89 0 144 -52.5t55 -131.5q0 -147 -115 -260t-261 -113q-91 0 -146 53.5t-55 134.5zM335 979q0 -56 30.5 -87.5t80.5 -31.5q90 0 170.5 125.5t80.5 255.5q0 55 -29 85t-78 30q-96 0 -175.5 -127.5t-79.5 -249.5z" />
<glyph unicode="&#xbb;" d="M37 -31l339 477l-110 474h44l248 -474l-468 -477h-53zM418 -31l341 477l-110 474h44l248 -474l-469 -477h-54z" />
<glyph unicode="&#xbc;" horiz-adv-x="1536" d="M161 662l14 31q70 1 87 15q26 20 52 99l137 411q15 44 15 62q0 14 -8 21t-23 7q-14 0 -56 -7l-13 30l255 53l-193 -586q-16 -47 -16 -68q0 -18 10 -25q13 -10 50 -11q10 0 28 -1l-10 -31h-329zM304 -55l936 1439h88l-934 -1439h-90zM854 130l28 80l485 453h66l-161 -459 h104l-26 -74h-97l-62 -185h-104l62 185h-295zM960 204h213l99 297z" />
<glyph unicode="&#xbd;" horiz-adv-x="1536" d="M161 662l14 31q70 1 87 15q26 20 52 99l137 411q15 44 15 62q0 14 -8 21t-23 7q-14 0 -56 -7l-13 30l255 53l-193 -586q-16 -47 -16 -68q0 -18 10 -25q13 -10 50 -11q10 0 28 -1l-10 -31h-329zM256 -55l935 1439h89l-935 -1439h-89zM837 -16q310 234 406 365 q42 58 42 121q0 51 -32.5 83.5t-88.5 32.5q-44 0 -75 -17t-60 -56l-38 16q31 70 91.5 110t134.5 40q85 0 138.5 -49.5t53.5 -117.5q0 -34 -16 -73t-73 -104.5t-149 -143.5l-182 -147h177q89 0 116 64h47l-72 -151h-420v27z" />
<glyph unicode="&#xbe;" horiz-adv-x="1536" d="M130 714q0 20 17.5 35t47.5 15q29 0 75 -22q66 -32 104 -32q36 0 66 39q41 52 41 122q0 72 -51 119t-155 51v26q150 19 219 74q44 36 44 85q0 39 -25 63.5t-64 24.5q-59 0 -111 -73l-42 11q67 132 198 132q78 0 123 -40t45 -95q0 -45 -33 -83q-43 -50 -134 -84 q112 -54 112 -163q0 -103 -92.5 -186.5t-235.5 -83.5q-81 0 -123 27q-26 17 -26 38zM292 -55l936 1439h88l-934 -1439h-90zM854 130l28 80l485 453h66l-161 -459h104l-26 -74h-96l-63 -185h-104l62 185h-295zM960 204h213l99 297z" />
<glyph unicode="&#xbf;" d="M73 -157q0 89 44 155q58 86 220 197.5t223 196t92 221.5h38q-14 -127 -61 -219t-196 -251q-125 -133 -169 -221q-31 -63 -31 -130q0 -79 56 -133.5t144 -54.5q85 0 138 36q30 20 30 48q0 20 -16.5 55.5t-16.5 58.5q0 34 24 56.5t59 22.5t59.5 -25t24.5 -65 q0 -54 -36.5 -108t-111 -89.5t-171.5 -35.5q-154 0 -248.5 87t-94.5 198zM610 875q0 43 30 72.5t72 29.5q43 0 72.5 -29.5t29.5 -72.5q0 -42 -30 -71.5t-72 -29.5t-72 29.5t-30 71.5z" />
<glyph unicode="&#xc0;" horiz-adv-x="1251" d="M-100 0l11 37q74 3 130.5 49.5t168.5 198.5l810 1102h35l-103 -1128q-8 -79 -8 -104q0 -40 15 -61q19 -29 51.5 -43t109.5 -14l-11 -37h-534l11 37h23q65 0 106 28q29 19 45 63q11 31 21 146l16 172h-388l-138 -187q-47 -63 -59 -90.5t-12 -51.5q0 -32 26 -55t86 -25 l-11 -37h-401zM464 519h341l52 535zM865 1802h221l109 -344h-32z" />
<glyph unicode="&#xc1;" horiz-adv-x="1251" d="M-100 0l11 37q74 3 130.5 49.5t168.5 198.5l810 1102h35l-103 -1128q-8 -79 -8 -104q0 -40 15 -61q19 -29 51.5 -43t109.5 -14l-11 -37h-534l11 37h23q65 0 106 28q29 19 45 63q11 31 21 146l16 172h-388l-138 -187q-47 -63 -59 -90.5t-12 -51.5q0 -32 26 -55t86 -25 l-11 -37h-401zM464 519h341l52 535zM1008 1459l103 343h225l-294 -343h-34z" />
<glyph unicode="&#xc2;" horiz-adv-x="1251" d="M-100 0l11 37q74 3 130.5 49.5t168.5 198.5l810 1102h35l-103 -1128q-8 -79 -8 -104q0 -40 15 -61q19 -29 51.5 -43t109.5 -14l-11 -37h-534l11 37h23q65 0 106 28q29 19 45 63q11 31 21 146l16 172h-388l-138 -187q-47 -63 -59 -90.5t-12 -51.5q0 -32 26 -55t86 -25 l-11 -37h-401zM464 519h341l52 535zM735 1452l311 316h150l75 -316h-21l-169 202l-319 -202h-27z" />
<glyph unicode="&#xc3;" horiz-adv-x="1251" d="M-100 0l11 37q74 3 130.5 49.5t168.5 198.5l810 1102h35l-103 -1128q-8 -79 -8 -104q0 -40 15 -61q19 -29 51.5 -43t109.5 -14l-11 -37h-534l11 37h23q65 0 106 28q29 19 45 63q11 31 21 146l16 172h-388l-138 -187q-47 -63 -59 -90.5t-12 -51.5q0 -32 26 -55t86 -25 l-11 -37h-401zM464 519h341l52 535zM728 1475q7 140 60 200t128 60q73 0 178.5 -70t144.5 -70q35 0 57 26q29 33 39 112h30q3 -126 -53 -194t-131 -68q-73 0 -168.5 61t-117.5 71q-17 8 -39 8q-37 0 -59.5 -26t-36.5 -110h-32z" />
<glyph unicode="&#xc4;" horiz-adv-x="1251" d="M-100 0l11 37q74 3 130.5 49.5t168.5 198.5l810 1102h35l-103 -1128q-8 -79 -8 -104q0 -40 15 -61q19 -29 51.5 -43t109.5 -14l-11 -37h-534l11 37h23q65 0 106 28q29 19 45 63q11 31 21 146l16 172h-388l-138 -187q-47 -63 -59 -90.5t-12 -51.5q0 -32 26 -55t86 -25 l-11 -37h-401zM464 519h341l52 535zM800 1604q0 45 31.5 76.5t75.5 31.5q45 0 76.5 -31.5t31.5 -76.5q0 -44 -31.5 -75.5t-76.5 -31.5q-44 0 -75.5 31.5t-31.5 75.5zM1156 1604q0 45 31 76.5t76 31.5t76 -31.5t31 -76.5q0 -44 -31 -75.5t-76 -31.5q-44 0 -75.5 31.5 t-31.5 75.5z" />
<glyph unicode="&#xc5;" horiz-adv-x="1251" d="M-100 0l11 37q74 3 130.5 49.5t168.5 198.5l810 1102h35l-103 -1128q-8 -79 -8 -104q0 -40 15 -61q19 -29 51.5 -43t109.5 -14l-11 -37h-534l11 37h23q65 0 106 28q29 19 45 63q11 31 21 146l16 172h-388l-138 -187q-47 -63 -59 -90.5t-12 -51.5q0 -32 26 -55t86 -25 l-11 -37h-401zM464 519h341l52 535zM863 1532q0 79 55 134t134 55t134 -55t55 -134q0 -78 -55.5 -133.5t-133.5 -55.5t-133.5 55.5t-55.5 133.5zM928 1532q0 -51 36.5 -87.5t88.5 -36.5q51 0 87.5 36.5t36.5 87.5q0 52 -36 88.5t-88 36.5t-88.5 -36.5t-36.5 -88.5z" />
<glyph unicode="&#xc6;" horiz-adv-x="1821" d="M-108 0l10 37q62 5 113 37.5t165 174.5l711 885q52 64 64 88t12 44q0 15 -9 27t-28 19t-69 7l14 37h987l-83 -323h-42q9 49 9 82q0 49 -25 83q-34 46 -100 71q-50 20 -206 20h-141l-156 -539h99q124 0 181 36q79 49 117 158h44l-144 -493h-41q18 69 18 111q0 64 -51 97 q-33 20 -148 20h-94l-135 -461q-18 -65 -18 -88q0 -21 21.5 -40t66.5 -19h120q345 0 497 307h39l-131 -378h-999l10 37q88 0 129 29q57 40 92 158l76 259h-417l-145 -179q-78 -97 -100 -139q-14 -27 -14 -55q0 -31 25 -51t89 -22l-11 -37h-402zM509 559h382l208 730z" />
<glyph unicode="&#xc7;" horiz-adv-x="1366" d="M138 505q0 222 119 432t326.5 330t418.5 120q99 0 222 -47q54 -20 78 -20t42 10t60 57h37l-101 -439h-36l-4 110q-5 60 -23 107t-54 81.5t-91 54t-122 19.5q-179 0 -313 -98q-171 -125 -268 -353q-80 -188 -80 -381q0 -197 115 -314.5t299 -117.5q139 0 247.5 62 t201.5 191h47q-110 -175 -244 -257.5t-321 -82.5q-166 0 -294 69.5t-195 195.5t-67 271zM441 -348l12 33q50 -12 86 -12q64 0 99.5 30.5t35.5 73.5q0 37 -21 55q-28 23 -84 24l110 174h59l-45 -76q59 -13 91 -52t32 -94q0 -67 -56 -115q-76 -63 -178 -63q-55 0 -141 22z" />
<glyph unicode="&#xc8;" horiz-adv-x="1251" d="M-46 0l13 37q78 2 105 14q40 18 58 46q27 41 64 172l238 818q28 99 28 151q0 38 -26.5 59.5t-103.5 21.5h-21l12 37h974l-84 -327h-37q7 46 7 77q0 53 -26 89q-34 46 -99 70q-48 18 -221 18h-172l-155 -536h127q136 0 197 41.5t105 153.5h37l-139 -492h-40q18 62 18 106 q0 43 -17.5 69t-48 38.5t-128.5 12.5h-129l-131 -449q-19 -65 -19 -99q0 -26 25 -46q17 -14 85 -14h120q195 0 312.5 69t210.5 240h37l-128 -377h-1048zM672 1802h221l109 -344h-32z" />
<glyph unicode="&#xc9;" horiz-adv-x="1251" d="M-46 0l13 37q78 2 105 14q40 18 58 46q27 41 64 172l238 818q28 99 28 151q0 38 -26.5 59.5t-103.5 21.5h-21l12 37h974l-84 -327h-37q7 46 7 77q0 53 -26 89q-34 46 -99 70q-48 18 -221 18h-172l-155 -536h127q136 0 197 41.5t105 153.5h37l-139 -492h-40q18 62 18 106 q0 43 -17.5 69t-48 38.5t-128.5 12.5h-129l-131 -449q-19 -65 -19 -99q0 -26 25 -46q17 -14 85 -14h120q195 0 312.5 69t210.5 240h37l-128 -377h-1048zM739 1459l103 343h225l-294 -343h-34z" />
<glyph unicode="&#xca;" horiz-adv-x="1251" d="M-46 0l13 37q78 2 105 14q40 18 58 46q27 41 64 172l238 818q28 99 28 151q0 38 -26.5 59.5t-103.5 21.5h-21l12 37h974l-84 -327h-37q7 46 7 77q0 53 -26 89q-34 46 -99 70q-48 18 -221 18h-172l-155 -536h127q136 0 197 41.5t105 153.5h37l-139 -492h-40q18 62 18 106 q0 43 -17.5 69t-48 38.5t-128.5 12.5h-129l-131 -449q-19 -65 -19 -99q0 -26 25 -46q17 -14 85 -14h120q195 0 312.5 69t210.5 240h37l-128 -377h-1048zM590 1452l311 316h150l75 -316h-21l-169 202l-319 -202h-27z" />
<glyph unicode="&#xcb;" horiz-adv-x="1251" d="M-46 0l13 37q78 2 105 14q40 18 58 46q27 41 64 172l238 818q28 99 28 151q0 38 -26.5 59.5t-103.5 21.5h-21l12 37h974l-84 -327h-37q7 46 7 77q0 53 -26 89q-34 46 -99 70q-48 18 -221 18h-172l-155 -536h127q136 0 197 41.5t105 153.5h37l-139 -492h-40q18 62 18 106 q0 43 -17.5 69t-48 38.5t-128.5 12.5h-129l-131 -449q-19 -65 -19 -99q0 -26 25 -46q17 -14 85 -14h120q195 0 312.5 69t210.5 240h37l-128 -377h-1048zM604 1604q0 45 31.5 76.5t75.5 31.5q45 0 76.5 -31.5t31.5 -76.5q0 -44 -31.5 -75.5t-76.5 -31.5q-44 0 -75.5 31.5 t-31.5 75.5zM960 1604q0 45 31 76.5t76 31.5t76 -31.5t31 -76.5q0 -44 -31 -75.5t-76 -31.5q-44 0 -75.5 31.5t-31.5 75.5z" />
<glyph unicode="&#xcc;" horiz-adv-x="682" d="M-64 0l14 37q84 2 111 14q44 17 65 47q33 47 68 168l236 818q30 102 30 154q0 26 -13 44t-39.5 27.5t-103.5 9.5l12 37h524l-11 -37q-64 1 -95 -14q-45 -20 -68.5 -57t-60.5 -164l-235 -818q-32 -113 -32 -144q0 -25 12.5 -42.5t40 -27t114.5 -15.5l-11 -37h-558z M444 1802h221l109 -344h-32z" />
<glyph unicode="&#xcd;" horiz-adv-x="682" d="M-64 0l14 37q84 2 111 14q44 17 65 47q33 47 68 168l236 818q30 102 30 154q0 26 -13 44t-39.5 27.5t-103.5 9.5l12 37h524l-11 -37q-64 1 -95 -14q-45 -20 -68.5 -57t-60.5 -164l-235 -818q-32 -113 -32 -144q0 -25 12.5 -42.5t40 -27t114.5 -15.5l-11 -37h-558z M505 1459l103 343h225l-294 -343h-34z" />
<glyph unicode="&#xce;" horiz-adv-x="682" d="M-64 0l14 37q84 2 111 14q44 17 65 47q33 47 68 168l236 818q30 102 30 154q0 26 -13 44t-39.5 27.5t-103.5 9.5l12 37h524l-11 -37q-64 1 -95 -14q-45 -20 -68.5 -57t-60.5 -164l-235 -818q-32 -113 -32 -144q0 -25 12.5 -42.5t40 -27t114.5 -15.5l-11 -37h-558z M326 1452l311 316h150l75 -316h-21l-169 202l-319 -202h-27z" />
<glyph unicode="&#xcf;" horiz-adv-x="682" d="M-64 0l14 37q84 2 111 14q44 17 65 47q33 47 68 168l236 818q30 102 30 154q0 26 -13 44t-39.5 27.5t-103.5 9.5l12 37h524l-11 -37q-64 1 -95 -14q-45 -20 -68.5 -57t-60.5 -164l-235 -818q-32 -113 -32 -144q0 -25 12.5 -42.5t40 -27t114.5 -15.5l-11 -37h-558z M344 1604q0 45 31.5 76.5t75.5 31.5q45 0 76.5 -31.5t31.5 -76.5q0 -44 -31.5 -75.5t-76.5 -31.5q-44 0 -75.5 31.5t-31.5 75.5zM700 1604q0 45 31 76.5t76 31.5t76 -31.5t31 -76.5q0 -44 -31 -75.5t-76 -31.5q-44 0 -75.5 31.5t-31.5 75.5z" />
<glyph unicode="&#xd0;" horiz-adv-x="1479" d="M-48 0l10 33q71 6 82 8q28 8 56 28q21 16 36 43q21 39 54 153l121 412h-179l23 74h177l99 337q29 100 29 139q0 40 -30.5 64t-124.5 26l10 39h440q278 0 409.5 -63t212 -200.5t80.5 -288.5q0 -131 -46.5 -257.5t-103 -201t-156.5 -151.5q-134 -104 -275.5 -149 t-353.5 -45h-570zM336 123q0 -14 10.5 -29t27.5 -20q26 -8 85 -8q157 0 292.5 32t222.5 97q122 93 195.5 253.5t73.5 362.5q0 238 -115 356.5t-334 118.5q-53 0 -129 -3l-155 -532h370l-20 -74h-371l-119 -412q-34 -118 -34 -142z" />
<glyph unicode="&#xd1;" horiz-adv-x="1366" d="M-57 0l14 37q80 2 107 14q41 18 61 47q29 44 65 170l269 943q-39 60 -83.5 82.5t-138.5 25.5l11 37h339l419 -1063l227 794q28 98 28 152q0 37 -26 58t-97 21q-12 0 -25 1l11 37h436l-12 -37q-68 1 -101 -14q-47 -21 -70 -54q-32 -47 -65 -164l-319 -1118h-36l-451 1144 l-241 -845q-27 -96 -27 -147q0 -38 24.5 -57.5t116.5 -26.5l-10 -37h-426zM648 1475q7 140 60 200t128 60q73 0 178.5 -70t144.5 -70q35 0 57 26q29 33 39 112h30q3 -126 -53 -194t-131 -68q-73 0 -168.5 61t-117.5 71q-17 8 -39 8q-37 0 -59.5 -26t-36.5 -110h-32z" />
<glyph unicode="&#xd2;" horiz-adv-x="1479" d="M122 443q0 190 91.5 375.5t218.5 310t271 191.5t306 67q135 0 239 -58.5t163 -173t59 -237.5q0 -218 -126.5 -457.5t-330.5 -365.5t-422 -126q-157 0 -262.5 69.5t-156 183.5t-50.5 221zM329 394q0 -142 73 -251.5t224 -109.5q91 0 178.5 45t182.5 154q119 137 200 349.5 t81 396.5q0 136 -73 240.5t-220 104.5q-100 0 -195.5 -49.5t-189.5 -162t-169 -294.5q-92 -224 -92 -423zM887 1802h221l109 -344h-32z" />
<glyph unicode="&#xd3;" horiz-adv-x="1479" d="M122 443q0 190 91.5 375.5t218.5 310t271 191.5t306 67q135 0 239 -58.5t163 -173t59 -237.5q0 -218 -126.5 -457.5t-330.5 -365.5t-422 -126q-157 0 -262.5 69.5t-156 183.5t-50.5 221zM329 394q0 -142 73 -251.5t224 -109.5q91 0 178.5 45t182.5 154q119 137 200 349.5 t81 396.5q0 136 -73 240.5t-220 104.5q-100 0 -195.5 -49.5t-189.5 -162t-169 -294.5q-92 -224 -92 -423zM972 1459l103 343h225l-294 -343h-34z" />
<glyph unicode="&#xd4;" horiz-adv-x="1479" d="M122 443q0 190 91.5 375.5t218.5 310t271 191.5t306 67q135 0 239 -58.5t163 -173t59 -237.5q0 -218 -126.5 -457.5t-330.5 -365.5t-422 -126q-157 0 -262.5 69.5t-156 183.5t-50.5 221zM329 394q0 -142 73 -251.5t224 -109.5q91 0 178.5 45t182.5 154q119 137 200 349.5 t81 396.5q0 136 -73 240.5t-220 104.5q-100 0 -195.5 -49.5t-189.5 -162t-169 -294.5q-92 -224 -92 -423zM757 1452l311 316h150l75 -316h-21l-169 202l-319 -202h-27z" />
<glyph unicode="&#xd5;" horiz-adv-x="1479" d="M122 443q0 190 91.5 375.5t218.5 310t271 191.5t306 67q135 0 239 -58.5t163 -173t59 -237.5q0 -218 -126.5 -457.5t-330.5 -365.5t-422 -126q-157 0 -262.5 69.5t-156 183.5t-50.5 221zM329 394q0 -142 73 -251.5t224 -109.5q91 0 178.5 45t182.5 154q119 137 200 349.5 t81 396.5q0 136 -73 240.5t-220 104.5q-100 0 -195.5 -49.5t-189.5 -162t-169 -294.5q-92 -224 -92 -423zM732 1475q7 140 60 200t128 60q73 0 178.5 -70t144.5 -70q35 0 57 26q29 33 39 112h30q3 -126 -53 -194t-131 -68q-73 0 -168.5 61t-117.5 71q-17 8 -39 8 q-37 0 -59.5 -26t-36.5 -110h-32z" />
<glyph unicode="&#xd6;" horiz-adv-x="1479" d="M122 443q0 190 91.5 375.5t218.5 310t271 191.5t306 67q135 0 239 -58.5t163 -173t59 -237.5q0 -218 -126.5 -457.5t-330.5 -365.5t-422 -126q-157 0 -262.5 69.5t-156 183.5t-50.5 221zM329 394q0 -142 73 -251.5t224 -109.5q91 0 178.5 45t182.5 154q119 137 200 349.5 t81 396.5q0 136 -73 240.5t-220 104.5q-100 0 -195.5 -49.5t-189.5 -162t-169 -294.5q-92 -224 -92 -423zM798 1604q0 45 31.5 76.5t75.5 31.5q45 0 76.5 -31.5t31.5 -76.5q0 -44 -31.5 -75.5t-76.5 -31.5q-44 0 -75.5 31.5t-31.5 75.5zM1154 1604q0 45 31 76.5t76 31.5 t76 -31.5t31 -76.5q0 -44 -31 -75.5t-76 -31.5q-44 0 -75.5 31.5t-31.5 75.5z" />
<glyph unicode="&#xd7;" horiz-adv-x="1382" d="M378 328l353 353l-352 352l58 58l352 -352l352 352l56 -57l-352 -352l354 -354l-57 -58l-354 354l-353 -353z" />
<glyph unicode="&#xd8;" horiz-adv-x="1479" d="M72 -24l156 162q-56 79 -80 149.5t-24 155.5q0 227 132.5 458.5t337 358.5t407.5 127q108 0 198 -35q61 -24 124 -79l133 138l54 -55l-136 -138q97 -146 97 -300q0 -217 -128.5 -454t-337.5 -366t-412 -129q-177 0 -314 113l-152 -154zM331 393q0 -55 18 -131l876 908 q-36 73 -87 106q-70 45 -164 45q-98 0 -178 -41q-109 -57 -207.5 -172t-178 -315t-79.5 -400zM378 183q80 -146 249 -146q93 0 179 44t189.5 163.5t188.5 330t85 404.5q0 47 -15 114z" />
<glyph unicode="&#xd9;" horiz-adv-x="1479" d="M218 349q0 59 11 126q8 44 39 152l134 461q28 100 28 147q0 37 -28.5 57.5t-143.5 26.5l10 37h573l-11 -37q-88 -2 -125.5 -16.5t-64 -51.5t-55.5 -137l-139 -480q-37 -128 -44 -168q-12 -64 -12 -119q0 -121 90 -204.5t241 -83.5q99 0 177 37.5t133.5 105t101.5 183 t81 233.5l120 414q45 155 45 202q0 33 -30.5 56.5t-123.5 28.5l11 37h431l-11 -37q-76 0 -109.5 -14.5t-58.5 -52t-56 -145.5l-147 -503q-71 -245 -134 -361.5t-182.5 -195t-296.5 -78.5q-204 0 -329 115.5t-125 264.5zM886 1802h221l109 -344h-32z" />
<glyph unicode="&#xda;" horiz-adv-x="1479" d="M218 349q0 59 11 126q8 44 39 152l134 461q28 100 28 147q0 37 -28.5 57.5t-143.5 26.5l10 37h573l-11 -37q-88 -2 -125.5 -16.5t-64 -51.5t-55.5 -137l-139 -480q-37 -128 -44 -168q-12 -64 -12 -119q0 -121 90 -204.5t241 -83.5q99 0 177 37.5t133.5 105t101.5 183 t81 233.5l120 414q45 155 45 202q0 33 -30.5 56.5t-123.5 28.5l11 37h431l-11 -37q-76 0 -109.5 -14.5t-58.5 -52t-56 -145.5l-147 -503q-71 -245 -134 -361.5t-182.5 -195t-296.5 -78.5q-204 0 -329 115.5t-125 264.5zM906 1459l103 343h225l-294 -343h-34z" />
<glyph unicode="&#xdb;" horiz-adv-x="1479" d="M218 349q0 59 11 126q8 44 39 152l134 461q28 100 28 147q0 37 -28.5 57.5t-143.5 26.5l10 37h573l-11 -37q-88 -2 -125.5 -16.5t-64 -51.5t-55.5 -137l-139 -480q-37 -128 -44 -168q-12 -64 -12 -119q0 -121 90 -204.5t241 -83.5q99 0 177 37.5t133.5 105t101.5 183 t81 233.5l120 414q45 155 45 202q0 33 -30.5 56.5t-123.5 28.5l11 37h431l-11 -37q-76 0 -109.5 -14.5t-58.5 -52t-56 -145.5l-147 -503q-71 -245 -134 -361.5t-182.5 -195t-296.5 -78.5q-204 0 -329 115.5t-125 264.5zM726 1452l311 316h150l75 -316h-21l-169 202 l-319 -202h-27z" />
<glyph unicode="&#xdc;" horiz-adv-x="1479" d="M218 349q0 59 11 126q8 44 39 152l134 461q28 100 28 147q0 37 -28.5 57.5t-143.5 26.5l10 37h573l-11 -37q-88 -2 -125.5 -16.5t-64 -51.5t-55.5 -137l-139 -480q-37 -128 -44 -168q-12 -64 -12 -119q0 -121 90 -204.5t241 -83.5q99 0 177 37.5t133.5 105t101.5 183 t81 233.5l120 414q45 155 45 202q0 33 -30.5 56.5t-123.5 28.5l11 37h431l-11 -37q-76 0 -109.5 -14.5t-58.5 -52t-56 -145.5l-147 -503q-71 -245 -134 -361.5t-182.5 -195t-296.5 -78.5q-204 0 -329 115.5t-125 264.5zM744 1604q0 45 31.5 76.5t75.5 31.5q45 0 76.5 -31.5 t31.5 -76.5q0 -44 -31.5 -75.5t-76.5 -31.5q-44 0 -75.5 31.5t-31.5 75.5zM1100 1604q0 45 31 76.5t76 31.5t76 -31.5t31 -76.5q0 -44 -31 -75.5t-76 -31.5q-44 0 -75.5 31.5t-31.5 75.5z" />
<glyph unicode="&#xdd;" horiz-adv-x="1139" d="M184 0l12 37q85 2 113 14q45 18 67 48q34 46 70 165l119 396l-145 468q-39 124 -71.5 154t-113.5 37l10 37h501l-12 -37q-94 -7 -107 -12q-22 -7 -36 -28t-14 -49q0 -41 29 -140l110 -369l258 361q100 141 100 180q0 22 -21.5 36.5t-122.5 20.5l10 37h426l-8 -37 q-62 -8 -85 -17q-36 -15 -71 -47q-47 -42 -136 -165l-332 -458l-100 -335q-37 -126 -37 -174q0 -31 11.5 -47t40.5 -26q38 -12 116 -13l-10 -37h-571zM777 1459l103 343h225l-294 -343h-34z" />
<glyph unicode="&#xde;" horiz-adv-x="1251" d="M-49 0l9 37q78 1 107 13q42 19 62 48q27 40 63 164l239 825q31 105 31 141q0 25 -14 45t-45 31.5t-93 10.5l11 41h530l-9 -41q-80 1 -118 -19t-64 -65q-20 -33 -61 -182h220q126 0 183 -17q107 -31 172.5 -110.5t65.5 -191.5q0 -139 -100 -250.5t-216 -143t-401 -31.5 h-139l-11 -39q-32 -114 -32 -144q0 -25 13.5 -43.5t43.5 -30t98 -11.5l-10 -37h-535zM403 372h143q265 0 373.5 97t108.5 273q0 137 -82 198q-54 40 -174 40h-196z" />
<glyph unicode="&#xdf;" d="M-329 -344q0 32 21 53t51 21q23 0 39 -15.5t16 -34.5q0 -14 -13 -37q-10 -16 -10 -24t6 -12q8 -7 24 -7q39 0 76 38q51 53 106 241l145 534l142 492q68 236 120 322.5t140 140.5t196 54q132 0 211 -76.5t79 -192.5q0 -99 -53 -175t-147 -124q-66 -33 -186 -54 q103 -27 156 -65t86.5 -105.5t33.5 -144.5q0 -127 -63 -245.5t-165 -191t-185 -72.5q-70 0 -115.5 48t-45.5 128q0 56 23.5 83t58.5 27q29 0 48.5 -19.5t19.5 -48.5q0 -31 -23 -78q-17 -34 -17 -49q0 -20 14.5 -33.5t35.5 -13.5q37 0 66 26q73 64 118 185q59 155 59 294 q0 115 -74 191q-53 56 -151 71l11 42q164 0 257.5 117.5t93.5 258.5q0 71 -44 118t-106 47q-59 0 -106 -33.5t-92 -120.5q-29 -58 -86 -254l-191 -660l-124 -381q-32 -99 -58 -146q-36 -63 -88 -116.5t-102.5 -77t-95.5 -23.5q-48 0 -86 34q-26 23 -26 64z" />
<glyph unicode="&#xe0;" d="M48 203q0 159 95.5 335.5t242.5 282.5q115 84 217 84q61 0 101.5 -32t61.5 -106l36 114l159 24l-195 -678l-22 -91q-3 -13 -3 -22q0 -16 10 -28q8 -9 20 -9q13 0 34 16q39 29 104 120l34 -24q-69 -104 -142 -158.5t-135 -54.5q-43 0 -64.5 21.5t-21.5 62.5q0 49 22 129 l21 75q-131 -171 -241 -239q-79 -49 -155 -49q-73 0 -126 60.5t-53 166.5zM208 239q0 -68 34 -107.5t78 -39.5q109 0 237 161q171 214 171 439q0 85 -33 123t-90 38q-64 0 -136 -60q-102 -85 -181.5 -252t-79.5 -302zM506 1402h221l109 -344h-32z" />
<glyph unicode="&#xe1;" d="M48 203q0 159 95.5 335.5t242.5 282.5q115 84 217 84q61 0 101.5 -32t61.5 -106l36 114l159 24l-195 -678l-22 -91q-3 -13 -3 -22q0 -16 10 -28q8 -9 20 -9q13 0 34 16q39 29 104 120l34 -24q-69 -104 -142 -158.5t-135 -54.5q-43 0 -64.5 21.5t-21.5 62.5q0 49 22 129 l21 75q-131 -171 -241 -239q-79 -49 -155 -49q-73 0 -126 60.5t-53 166.5zM208 239q0 -68 34 -107.5t78 -39.5q109 0 237 161q171 214 171 439q0 85 -33 123t-90 38q-64 0 -136 -60q-102 -85 -181.5 -252t-79.5 -302zM580 1059l103 343h225l-294 -343h-34z" />
<glyph unicode="&#xe2;" d="M48 203q0 159 95.5 335.5t242.5 282.5q115 84 217 84q61 0 101.5 -32t61.5 -106l36 114l159 24l-195 -678l-22 -91q-3 -13 -3 -22q0 -16 10 -28q8 -9 20 -9q13 0 34 16q39 29 104 120l34 -24q-69 -104 -142 -158.5t-135 -54.5q-43 0 -64.5 21.5t-21.5 62.5q0 49 22 129 l21 75q-131 -171 -241 -239q-79 -49 -155 -49q-73 0 -126 60.5t-53 166.5zM208 239q0 -68 34 -107.5t78 -39.5q109 0 237 161q171 214 171 439q0 85 -33 123t-90 38q-64 0 -136 -60q-102 -85 -181.5 -252t-79.5 -302zM424 1071l311 316h150l75 -316h-21l-169 202l-319 -202 h-27z" />
<glyph unicode="&#xe3;" d="M48 203q0 159 95.5 335.5t242.5 282.5q115 84 217 84q61 0 101.5 -32t61.5 -106l36 114l159 24l-195 -678l-22 -91q-3 -13 -3 -22q0 -16 10 -28q8 -9 20 -9q13 0 34 16q39 29 104 120l34 -24q-69 -104 -142 -158.5t-135 -54.5q-43 0 -64.5 21.5t-21.5 62.5q0 49 22 129 l21 75q-131 -171 -241 -239q-79 -49 -155 -49q-73 0 -126 60.5t-53 166.5zM208 239q0 -68 34 -107.5t78 -39.5q109 0 237 161q171 214 171 439q0 85 -33 123t-90 38q-64 0 -136 -60q-102 -85 -181.5 -252t-79.5 -302zM369 1106q7 140 60 200t128 60q73 0 178.5 -70 t144.5 -70q35 0 57 26q29 33 39 112h30q3 -126 -53 -194t-131 -68q-73 0 -168.5 61t-117.5 71q-17 8 -39 8q-37 0 -59.5 -26t-36.5 -110h-32z" />
<glyph unicode="&#xe4;" d="M48 203q0 159 95.5 335.5t242.5 282.5q115 84 217 84q61 0 101.5 -32t61.5 -106l36 114l159 24l-195 -678l-22 -91q-3 -13 -3 -22q0 -16 10 -28q8 -9 20 -9q13 0 34 16q39 29 104 120l34 -24q-69 -104 -142 -158.5t-135 -54.5q-43 0 -64.5 21.5t-21.5 62.5q0 49 22 129 l21 75q-131 -171 -241 -239q-79 -49 -155 -49q-73 0 -126 60.5t-53 166.5zM208 239q0 -68 34 -107.5t78 -39.5q109 0 237 161q171 214 171 439q0 85 -33 123t-90 38q-64 0 -136 -60q-102 -85 -181.5 -252t-79.5 -302zM442 1232q0 45 31.5 76.5t75.5 31.5q45 0 76.5 -31.5 t31.5 -76.5q0 -44 -31.5 -75.5t-76.5 -31.5q-44 0 -75.5 31.5t-31.5 75.5zM798 1232q0 45 31 76.5t76 31.5t76 -31.5t31 -76.5q0 -44 -31 -75.5t-76 -31.5q-44 0 -75.5 31.5t-31.5 75.5z" />
<glyph unicode="&#xe5;" d="M48 203q0 159 95.5 335.5t242.5 282.5q115 84 217 84q61 0 101.5 -32t61.5 -106l36 114l159 24l-195 -678l-22 -91q-3 -13 -3 -22q0 -16 10 -28q8 -9 20 -9q13 0 34 16q39 29 104 120l34 -24q-69 -104 -142 -158.5t-135 -54.5q-43 0 -64.5 21.5t-21.5 62.5q0 49 22 129 l21 75q-131 -171 -241 -239q-79 -49 -155 -49q-73 0 -126 60.5t-53 166.5zM208 239q0 -68 34 -107.5t78 -39.5q109 0 237 161q171 214 171 439q0 85 -33 123t-90 38q-64 0 -136 -60q-102 -85 -181.5 -252t-79.5 -302zM551 1232q0 79 55 134t134 55t134 -55t55 -134 q0 -78 -55.5 -133.5t-133.5 -55.5t-133.5 55.5t-55.5 133.5zM616 1232q0 -51 36.5 -87.5t88.5 -36.5q51 0 87.5 36.5t36.5 87.5q0 52 -36 88.5t-88 36.5t-88.5 -36.5t-36.5 -88.5z" />
<glyph unicode="&#xe6;" horiz-adv-x="1366" d="M45 207q0 154 99 333.5t245 284.5q111 80 208 80q67 0 106.5 -40t49.5 -137l34 140l130 21l-24 -97q129 113 255 113q86 0 137 -43.5t51 -102.5q0 -58 -38 -120.5t-102.5 -109.5t-175 -89.5t-233.5 -60.5q-12 -69 -12 -115q0 -89 46 -138t125 -49q68 0 136.5 36 t158.5 131l26 -30q-88 -114 -194.5 -176t-200.5 -62q-111 0 -181.5 71t-70.5 181q0 29 4 72q-137 -198 -196 -245q-98 -79 -203 -79q-75 0 -127.5 60.5t-52.5 170.5zM204 232q0 -58 39 -106q27 -33 67 -33q55 0 134 64q106 84 185 255.5t79 307.5q0 72 -28.5 105t-79.5 33 q-127 0 -261.5 -229.5t-134.5 -396.5zM797 428q214 46 313 145t99 186q0 37 -28 65t-64 28q-48 0 -113.5 -41.5t-113.5 -124.5t-93 -258z" />
<glyph unicode="&#xe7;" horiz-adv-x="909" d="M56 271q0 153 85.5 301t230 240.5t283.5 92.5q109 0 163 -45.5t54 -111.5q0 -62 -38 -106q-28 -34 -69 -34q-31 0 -51.5 20t-20.5 50q0 19 7.5 35t31 38.5t28.5 32.5t5 21q0 21 -19 35q-29 20 -82 20q-98 0 -194 -69t-164 -196q-82 -154 -82 -308q0 -102 58 -161.5 t158 -59.5q77 0 152.5 38.5t169.5 139.5l29 -26q-104 -125 -210 -183.5t-224 -58.5q-142 0 -221.5 80t-79.5 215zM155 -348l12 33q50 -12 86 -12q64 0 99.5 30.5t35.5 73.5q0 37 -21 55q-28 23 -84 24l110 174h59l-45 -76q59 -13 91 -52t32 -94q0 -67 -56 -115 q-76 -63 -178 -63q-55 0 -141 22z" />
<glyph unicode="&#xe8;" horiz-adv-x="909" d="M64 271q0 149 92 305t231 242.5t286 86.5q106 0 157 -43t51 -102q0 -83 -66 -159q-87 -99 -256 -160q-112 -41 -315 -64q-7 -50 -7 -83q0 -89 63 -151.5t153 -62.5q72 0 138.5 29.5t197.5 130.5l21 -29q-237 -235 -452 -235q-146 0 -220 92t-74 203zM251 426 q148 17 241 58q123 55 184.5 131.5t61.5 145.5q0 42 -26.5 68t-75.5 26q-102 0 -216.5 -108.5t-168.5 -320.5zM456 1402h221l109 -344h-32z" />
<glyph unicode="&#xe9;" horiz-adv-x="909" d="M64 271q0 149 92 305t231 242.5t286 86.5q106 0 157 -43t51 -102q0 -83 -66 -159q-87 -99 -256 -160q-112 -41 -315 -64q-7 -50 -7 -83q0 -89 63 -151.5t153 -62.5q72 0 138.5 29.5t197.5 130.5l21 -29q-237 -235 -452 -235q-146 0 -220 92t-74 203zM251 426 q148 17 241 58q123 55 184.5 131.5t61.5 145.5q0 42 -26.5 68t-75.5 26q-102 0 -216.5 -108.5t-168.5 -320.5zM526 1059l103 343h225l-294 -343h-34z" />
<glyph unicode="&#xea;" horiz-adv-x="909" d="M64 271q0 149 92 305t231 242.5t286 86.5q106 0 157 -43t51 -102q0 -83 -66 -159q-87 -99 -256 -160q-112 -41 -315 -64q-7 -50 -7 -83q0 -89 63 -151.5t153 -62.5q72 0 138.5 29.5t197.5 130.5l21 -29q-237 -235 -452 -235q-146 0 -220 92t-74 203zM251 426 q148 17 241 58q123 55 184.5 131.5t61.5 145.5q0 42 -26.5 68t-75.5 26q-102 0 -216.5 -108.5t-168.5 -320.5zM371 1071l311 316h150l75 -316h-21l-169 202l-319 -202h-27z" />
<glyph unicode="&#xeb;" horiz-adv-x="909" d="M64 271q0 149 92 305t231 242.5t286 86.5q106 0 157 -43t51 -102q0 -83 -66 -159q-87 -99 -256 -160q-112 -41 -315 -64q-7 -50 -7 -83q0 -89 63 -151.5t153 -62.5q72 0 138.5 29.5t197.5 130.5l21 -29q-237 -235 -452 -235q-146 0 -220 92t-74 203zM251 426 q148 17 241 58q123 55 184.5 131.5t61.5 145.5q0 42 -26.5 68t-75.5 26q-102 0 -216.5 -108.5t-168.5 -320.5zM388 1232q0 45 31.5 76.5t75.5 31.5q45 0 76.5 -31.5t31.5 -76.5q0 -44 -31.5 -75.5t-76.5 -31.5q-44 0 -75.5 31.5t-31.5 75.5zM744 1232q0 45 31 76.5t76 31.5 t76 -31.5t31 -76.5q0 -44 -31 -75.5t-76 -31.5q-44 0 -75.5 31.5t-31.5 75.5z" />
<glyph unicode="&#xec;" horiz-adv-x="569" d="M88 62q0 37 25 123l130 448q32 110 32 138q0 22 -15.5 36t-42.5 14q-22 0 -91 -11v39l345 56l-198 -701q-20 -71 -20 -85q0 -16 9.5 -26t22.5 -10q15 0 36 16q57 45 115 128l35 -23q-68 -104 -160 -175q-68 -53 -130 -53q-41 0 -67 24.5t-26 61.5zM235 1402h221l109 -344 h-32z" />
<glyph unicode="&#xed;" horiz-adv-x="569" d="M88 62q0 37 25 123l130 448q32 110 32 138q0 22 -15.5 36t-42.5 14q-22 0 -91 -11v39l345 56l-198 -701q-20 -71 -20 -85q0 -16 9.5 -26t22.5 -10q15 0 36 16q57 45 115 128l35 -23q-68 -104 -160 -175q-68 -53 -130 -53q-41 0 -67 24.5t-26 61.5zM356 1059l103 343h225 l-294 -343h-34z" />
<glyph unicode="&#xee;" horiz-adv-x="569" d="M88 62q0 37 25 123l130 448q32 110 32 138q0 22 -15.5 36t-42.5 14q-22 0 -91 -11v39l345 56l-198 -701q-20 -71 -20 -85q0 -16 9.5 -26t22.5 -10q15 0 36 16q57 45 115 128l35 -23q-68 -104 -160 -175q-68 -53 -130 -53q-41 0 -67 24.5t-26 61.5zM164 1071l311 316h150 l75 -316h-21l-169 202l-319 -202h-27z" />
<glyph unicode="&#xef;" horiz-adv-x="569" d="M88 62q0 37 25 123l130 448q32 110 32 138q0 22 -15.5 36t-42.5 14q-22 0 -91 -11v39l345 56l-198 -701q-20 -71 -20 -85q0 -16 9.5 -26t22.5 -10q15 0 36 16q57 45 115 128l35 -23q-68 -104 -160 -175q-68 -53 -130 -53q-41 0 -67 24.5t-26 61.5zM182 1232 q0 45 31.5 76.5t75.5 31.5q45 0 76.5 -31.5t31.5 -76.5q0 -44 -31.5 -75.5t-76.5 -31.5q-44 0 -75.5 31.5t-31.5 75.5zM538 1232q0 45 31 76.5t76 31.5t76 -31.5t31 -76.5q0 -44 -31 -75.5t-76 -31.5q-44 0 -75.5 31.5t-31.5 75.5z" />
<glyph unicode="&#xf0;" d="M55 300q0 134 85 281.5t226.5 235.5t250.5 88q49 0 83.5 -16.5t73.5 -59.5q-4 104 -20 176t-58 175l-220 -119l-28 49l223 120q-45 91 -95 157l29 31q78 -76 134 -152l220 121l27 -51l-212 -114q92 -152 134.5 -285.5t42.5 -275.5q0 -192 -87 -355.5t-225.5 -246.5 t-274.5 -83q-130 0 -219.5 91t-89.5 233zM221 224q0 -95 48.5 -147t119.5 -52q76 0 151 66q101 89 170 265.5t69 305.5q0 88 -48 139t-118 51q-72 0 -146 -60q-97 -80 -171.5 -243t-74.5 -325z" />
<glyph unicode="&#xf1;" d="M39 0l182 626q32 113 32 136q0 22 -17.5 38.5t-43.5 16.5q-12 0 -42 -4l-38 -6l-6 36l346 62l-133 -455q187 279 286.5 367t191.5 88q50 0 82.5 -33t32.5 -86q0 -60 -29 -160l-122 -421q-21 -73 -21 -89q0 -14 8 -23.5t17 -9.5q12 0 29 13q53 42 116 128l31 -19 q-93 -133 -176 -190q-58 -39 -104 -39q-37 0 -59 22.5t-22 60.5q0 48 34 165l116 402q22 75 22 117q0 20 -13 32.5t-32 12.5q-28 0 -67 -24q-74 -45 -154 -148.5t-169 -264.5q-47 -85 -78 -186l-50 -165h-150zM369 1106q7 140 60 200t128 60q73 0 178.5 -70t144.5 -70 q35 0 57 26q29 33 39 112h30q3 -126 -53 -194t-131 -68q-73 0 -168.5 61t-117.5 71q-17 8 -39 8q-37 0 -59.5 -26t-36.5 -110h-32z" />
<glyph unicode="&#xf2;" d="M60 290q0 147 84.5 295t226 234t273.5 86t217.5 -87t85.5 -226q0 -150 -79.5 -297t-221.5 -233t-276 -86q-137 0 -223.5 87.5t-86.5 226.5zM224 224q0 -95 48 -146.5t121 -51.5q141 0 264.5 209.5t123.5 425.5q0 93 -45.5 142.5t-117.5 49.5q-147 0 -270.5 -210.5 t-123.5 -418.5zM554 1402h221l109 -344h-32z" />
<glyph unicode="&#xf3;" d="M60 290q0 147 84.5 295t226 234t273.5 86t217.5 -87t85.5 -226q0 -150 -79.5 -297t-221.5 -233t-276 -86q-137 0 -223.5 87.5t-86.5 226.5zM224 224q0 -95 48 -146.5t121 -51.5q141 0 264.5 209.5t123.5 425.5q0 93 -45.5 142.5t-117.5 49.5q-147 0 -270.5 -210.5 t-123.5 -418.5zM580 1059l103 343h225l-294 -343h-34z" />
<glyph unicode="&#xf4;" d="M60 290q0 147 84.5 295t226 234t273.5 86t217.5 -87t85.5 -226q0 -150 -79.5 -297t-221.5 -233t-276 -86q-137 0 -223.5 87.5t-86.5 226.5zM224 224q0 -95 48 -146.5t121 -51.5q141 0 264.5 209.5t123.5 425.5q0 93 -45.5 142.5t-117.5 49.5q-147 0 -270.5 -210.5 t-123.5 -418.5zM424 1071l311 316h150l75 -316h-21l-169 202l-319 -202h-27z" />
<glyph unicode="&#xf5;" d="M60 290q0 147 84.5 295t226 234t273.5 86t217.5 -87t85.5 -226q0 -150 -79.5 -297t-221.5 -233t-276 -86q-137 0 -223.5 87.5t-86.5 226.5zM224 224q0 -95 48 -146.5t121 -51.5q141 0 264.5 209.5t123.5 425.5q0 93 -45.5 142.5t-117.5 49.5q-147 0 -270.5 -210.5 t-123.5 -418.5zM369 1106q7 140 60 200t128 60q73 0 178.5 -70t144.5 -70q35 0 57 26q29 33 39 112h30q3 -126 -53 -194t-131 -68q-73 0 -168.5 61t-117.5 71q-17 8 -39 8q-37 0 -59.5 -26t-36.5 -110h-32z" />
<glyph unicode="&#xf6;" d="M60 290q0 147 84.5 295t226 234t273.5 86t217.5 -87t85.5 -226q0 -150 -79.5 -297t-221.5 -233t-276 -86q-137 0 -223.5 87.5t-86.5 226.5zM224 224q0 -95 48 -146.5t121 -51.5q141 0 264.5 209.5t123.5 425.5q0 93 -45.5 142.5t-117.5 49.5q-147 0 -270.5 -210.5 t-123.5 -418.5zM442 1232q0 45 31.5 76.5t75.5 31.5q45 0 76.5 -31.5t31.5 -76.5q0 -44 -31.5 -75.5t-76.5 -31.5q-44 0 -75.5 31.5t-31.5 75.5zM798 1232q0 45 31 76.5t76 31.5t76 -31.5t31 -76.5q0 -44 -31 -75.5t-76 -31.5q-44 0 -75.5 31.5t-31.5 75.5z" />
<glyph unicode="&#xf7;" horiz-adv-x="1124" d="M53 640v82h1078v-82h-1078zM504 367q0 36 25.5 62t62.5 26t62.5 -26t25.5 -62t-26 -62t-62 -26t-62 26t-26 62zM504 988q0 36 25.5 61.5t62.5 25.5q36 0 61.5 -25.5t25.5 -61.5t-25.5 -61.5t-62.5 -25.5q-36 0 -61.5 25.5t-25.5 61.5z" />
<glyph unicode="&#xf8;" d="M5 -31l122 124q-70 98 -70 194q0 144 87.5 295t231.5 237t278 86q51 0 92.5 -14.5t93.5 -52.5l121 127l40 -40l-122 -129q69 -99 69 -205q0 -152 -85.5 -302.5t-224 -231.5t-274.5 -81q-58 0 -102.5 17t-95.5 58l-122 -124zM225 233q0 -12 1 -36l540 562q-36 55 -66.5 74 t-80.5 19q-83 0 -159 -68q-105 -93 -177 -278q-58 -149 -58 -273zM242 129q37 -62 69.5 -83t84.5 -21t102.5 28t111 105.5t117.5 225.5t57 274q0 8 -1 35z" />
<glyph unicode="&#xf9;" d="M60 691q75 116 159 171q64 43 118 43q37 0 60.5 -23.5t23.5 -60.5q0 -54 -40 -193l-94 -323q-39 -132 -39 -167q0 -19 12.5 -30.5t33.5 -11.5q33 0 86 33t141.5 146.5t146 213t122.5 316.5l22 76h152l-174 -596q-39 -133 -39 -168q0 -18 6.5 -26.5t17.5 -8.5 q17 0 37.5 15.5t103.5 123.5l30 -23q-79 -125 -162 -184q-55 -38 -106 -38q-39 0 -61 22t-22 57q0 34 13 90q16 74 91 322q-170 -279 -284.5 -385t-212.5 -106q-46 0 -78 32t-32 81q0 75 44 230l87 309q32 111 32 138q0 12 -8.5 20.5t-18.5 8.5q-21 0 -42 -15t-95 -111z M420 1402h221l109 -344h-32z" />
<glyph unicode="&#xfa;" d="M60 691q75 116 159 171q64 43 118 43q37 0 60.5 -23.5t23.5 -60.5q0 -54 -40 -193l-94 -323q-39 -132 -39 -167q0 -19 12.5 -30.5t33.5 -11.5q33 0 86 33t141.5 146.5t146 213t122.5 316.5l22 76h152l-174 -596q-39 -133 -39 -168q0 -18 6.5 -26.5t17.5 -8.5 q17 0 37.5 15.5t103.5 123.5l30 -23q-79 -125 -162 -184q-55 -38 -106 -38q-39 0 -61 22t-22 57q0 34 13 90q16 74 91 322q-170 -279 -284.5 -385t-212.5 -106q-46 0 -78 32t-32 81q0 75 44 230l87 309q32 111 32 138q0 12 -8.5 20.5t-18.5 8.5q-21 0 -42 -15t-95 -111z M580 1059l103 343h225l-294 -343h-34z" />
<glyph unicode="&#xfb;" d="M60 691q75 116 159 171q64 43 118 43q37 0 60.5 -23.5t23.5 -60.5q0 -54 -40 -193l-94 -323q-39 -132 -39 -167q0 -19 12.5 -30.5t33.5 -11.5q33 0 86 33t141.5 146.5t146 213t122.5 316.5l22 76h152l-174 -596q-39 -133 -39 -168q0 -18 6.5 -26.5t17.5 -8.5 q17 0 37.5 15.5t103.5 123.5l30 -23q-79 -125 -162 -184q-55 -38 -106 -38q-39 0 -61 22t-22 57q0 34 13 90q16 74 91 322q-170 -279 -284.5 -385t-212.5 -106q-46 0 -78 32t-32 81q0 75 44 230l87 309q32 111 32 138q0 12 -8.5 20.5t-18.5 8.5q-21 0 -42 -15t-95 -111z M364 1071l311 316h150l75 -316h-21l-169 202l-319 -202h-27z" />
<glyph unicode="&#xfc;" d="M60 691q75 116 159 171q64 43 118 43q37 0 60.5 -23.5t23.5 -60.5q0 -54 -40 -193l-94 -323q-39 -132 -39 -167q0 -19 12.5 -30.5t33.5 -11.5q33 0 86 33t141.5 146.5t146 213t122.5 316.5l22 76h152l-174 -596q-39 -133 -39 -168q0 -18 6.5 -26.5t17.5 -8.5 q17 0 37.5 15.5t103.5 123.5l30 -23q-79 -125 -162 -184q-55 -38 -106 -38q-39 0 -61 22t-22 57q0 34 13 90q16 74 91 322q-170 -279 -284.5 -385t-212.5 -106q-46 0 -78 32t-32 81q0 75 44 230l87 309q32 111 32 138q0 12 -8.5 20.5t-18.5 8.5q-21 0 -42 -15t-95 -111z M418 1232q0 45 31.5 76.5t75.5 31.5q45 0 76.5 -31.5t31.5 -76.5q0 -44 -31.5 -75.5t-76.5 -31.5q-44 0 -75.5 31.5t-31.5 75.5zM774 1232q0 45 31 76.5t76 31.5t76 -31.5t31 -76.5q0 -44 -31 -75.5t-76 -31.5q-44 0 -75.5 31.5t-31.5 75.5z" />
<glyph unicode="&#xfd;" horiz-adv-x="909" d="M-164 -364q0 39 32.5 71t70.5 32q20 0 33 -9q8 -5 17.5 -28.5t17.5 -31.5q5 -5 12 -5q6 0 21 10q55 34 128 108q96 98 142 160l-56 634q-14 157 -42 191t-94 34q-21 0 -75 -6l-9 37l293 72q34 -58 47 -108.5t26 -198.5l44 -492q60 72 174 228q55 76 136 207q49 80 60 112 q6 16 6 33q0 11 -7 18t-36.5 16.5t-49 35t-19.5 58.5q0 41 24 66t60 25q44 0 75 -36.5t31 -100.5q0 -79 -54 -180.5t-208 -311.5t-373 -458q-151 -171 -224 -215.5t-125 -44.5q-31 0 -54.5 23.5t-23.5 54.5zM538 1059l103 343h225l-294 -343h-34z" />
<glyph unicode="&#xfe;" d="M-226 -442l10 40q92 3 124.5 31.5t69.5 156.5l402 1394q24 82 24 103q0 27 -16 42t-47 15q-29 0 -81 -8v40l343 50l-219 -747q109 128 194.5 179t174.5 51t152 -70.5t63 -183.5q0 -220 -179 -447.5t-417 -227.5q-89 0 -175 50l-73 -258q-22 -76 -22 -100q0 -23 11.5 -38 t37.5 -23.5t103 -8.5l-9 -40h-471zM220 105q62 -74 167 -74q75 0 165 70.5t167.5 232.5t77.5 319q0 80 -36.5 122.5t-85.5 42.5q-87 0 -179 -88q-129 -122 -189 -326z" />
<glyph unicode="&#xff;" horiz-adv-x="909" d="M-164 -364q0 39 32.5 71t70.5 32q20 0 33 -9q8 -5 17.5 -28.5t17.5 -31.5q5 -5 12 -5q6 0 21 10q55 34 128 108q96 98 142 160l-56 634q-14 157 -42 191t-94 34q-21 0 -75 -6l-9 37l293 72q34 -58 47 -108.5t26 -198.5l44 -492q60 72 174 228q55 76 136 207q49 80 60 112 q6 16 6 33q0 11 -7 18t-36.5 16.5t-49 35t-19.5 58.5q0 41 24 66t60 25q44 0 75 -36.5t31 -100.5q0 -79 -54 -180.5t-208 -311.5t-373 -458q-151 -171 -224 -215.5t-125 -44.5q-31 0 -54.5 23.5t-23.5 54.5zM352 1232q0 45 31.5 76.5t75.5 31.5q45 0 76.5 -31.5t31.5 -76.5 q0 -44 -31.5 -75.5t-76.5 -31.5q-44 0 -75.5 31.5t-31.5 75.5zM708 1232q0 45 31 76.5t76 31.5t76 -31.5t31 -76.5q0 -44 -31 -75.5t-76 -31.5q-44 0 -75.5 31.5t-31.5 75.5z" />
<glyph unicode="&#x152;" horiz-adv-x="1933" d="M45 455q0 183 87.5 353.5t212.5 292.5t279.5 194.5t272.5 72.5q11 0 101 -5q141 -7 287 -7h700l-87 -329h-38q7 46 7 76q0 50 -30.5 94t-79 63.5t-194.5 19.5h-203l-155 -536h80q116 0 172 17t93.5 55t73.5 122h37l-144 -492h-37q19 79 19 111q0 52 -35 85t-96 33l-55 -1 h-129l-125 -425q-26 -89 -26 -114q0 -20 11.5 -37t28.5 -22.5t91 -5.5h108q118 0 188 23q103 32 180.5 103.5t130.5 178.5h38l-127 -375h-666q-155 0 -265 -4l-236 -10q-138 0 -247.5 62.5t-166 176.5t-56.5 230zM256 398q0 -159 86 -248t242 -89q142 0 211 57t127 257 l179 614q35 119 35 173q0 51 -48 90.5t-145 39.5q-175 0 -304 -91q-166 -118 -274.5 -350.5t-108.5 -452.5z" />
<glyph unicode="&#x153;" horiz-adv-x="1366" d="M54 282q0 124 57.5 241t139 202t174.5 132.5t172 47.5q93 0 157 -49.5t80 -129.5q158 179 331 179q78 0 120.5 -39t42.5 -101q0 -57 -30 -110q-43 -75 -120.5 -132t-189 -98.5t-193.5 -50.5q-8 -58 -8 -90q0 -90 48.5 -144t115.5 -54q53 0 99 24q66 33 180 130l26 -29 q-104 -118 -213.5 -176.5t-187.5 -58.5q-74 0 -125 44t-69 132q-147 -177 -330 -177q-120 0 -198.5 85t-78.5 222zM211 174q0 -73 37 -113.5t94 -40.5q131 0 239 223q134 275 134 451q0 73 -39.5 116t-97.5 43t-113 -46q-76 -63 -155 -233q-99 -212 -99 -400zM803 422 q193 40 293 142.5t100 199.5q0 40 -21.5 64t-54.5 24q-88 0 -168.5 -106.5t-148.5 -323.5z" />
<glyph unicode="&#x178;" horiz-adv-x="1139" d="M184 0l12 37q85 2 113 14q45 18 67 48q34 46 70 165l119 396l-145 468q-39 124 -71.5 154t-113.5 37l10 37h501l-12 -37q-94 -7 -107 -12q-22 -7 -36 -28t-14 -49q0 -41 29 -140l110 -369l258 361q100 141 100 180q0 22 -21.5 36.5t-122.5 20.5l10 37h426l-8 -37 q-62 -8 -85 -17q-36 -15 -71 -47q-47 -42 -136 -165l-332 -458l-100 -335q-37 -126 -37 -174q0 -31 11.5 -47t40.5 -26q38 -12 116 -13l-10 -37h-571zM573 1604q0 45 31.5 76.5t75.5 31.5q45 0 76.5 -31.5t31.5 -76.5q0 -44 -31.5 -75.5t-76.5 -31.5q-44 0 -75.5 31.5 t-31.5 75.5zM929 1604q0 45 31 76.5t76 31.5t76 -31.5t31 -76.5q0 -44 -31 -75.5t-76 -31.5q-44 0 -75.5 31.5t-31.5 75.5z" />
<glyph unicode="&#x2c6;" horiz-adv-x="682" d="M254 1071l311 316h150l75 -316h-21l-169 202l-319 -202h-27z" />
<glyph unicode="&#x2dc;" horiz-adv-x="682" d="M198 1106q7 140 60 200t128 60q73 0 178.5 -70t144.5 -70q35 0 57 26q29 33 39 112h30q3 -126 -53 -194t-131 -68q-73 0 -168.5 61t-117.5 71q-17 8 -39 8q-37 0 -59.5 -26t-36.5 -110h-32z" />
<glyph unicode="&#x2000;" horiz-adv-x="901" />
<glyph unicode="&#x2001;" horiz-adv-x="1802" />
<glyph unicode="&#x2002;" horiz-adv-x="901" />
<glyph unicode="&#x2003;" horiz-adv-x="1802" />
<glyph unicode="&#x2004;" horiz-adv-x="600" />
<glyph unicode="&#x2005;" horiz-adv-x="450" />
<glyph unicode="&#x2006;" horiz-adv-x="300" />
<glyph unicode="&#x2007;" horiz-adv-x="300" />
<glyph unicode="&#x2008;" horiz-adv-x="225" />
<glyph unicode="&#x2009;" horiz-adv-x="360" />
<glyph unicode="&#x200a;" horiz-adv-x="100" />
<glyph unicode="&#x2010;" horiz-adv-x="682" d="M54 378l41 133h518l-41 -133h-518z" />
<glyph unicode="&#x2011;" horiz-adv-x="682" d="M54 378l41 133h518l-41 -133h-518z" />
<glyph unicode="&#x2012;" horiz-adv-x="682" d="M54 378l41 133h518l-41 -133h-518z" />
<glyph unicode="&#x2013;" d="M-18 453v73h1059v-73h-1059z" />
<glyph unicode="&#x2014;" horiz-adv-x="1821" d="M-19 453v74l1859 -1v-74z" />
<glyph unicode="&#x2018;" horiz-adv-x="682" d="M434 1066q0 89 70 180t203 141l20 -31q-76 -33 -117 -79.5t-41 -82.5q0 -19 6 -34q3 -8 27 -32t28 -33q7 -17 7 -39q0 -44 -30 -75t-69 -31q-41 0 -72.5 33t-31.5 83z" />
<glyph unicode="&#x2019;" horiz-adv-x="682" d="M401 982q75 33 122 86q36 40 36 76q0 19 -6 34q-4 8 -28 32t-27 33q-7 16 -7 39q0 43 29.5 74t69.5 31q41 0 72.5 -33t31.5 -83q0 -89 -70 -180t-203 -141z" />
<glyph unicode="&#x201a;" horiz-adv-x="682" d="M65 -225q75 34 122 86q36 40 36 77q0 18 -6 33q-4 8 -28 32t-27 33q-7 17 -7 39q0 43 29.5 74t69.5 31q41 0 72.5 -33t31.5 -83q0 -89 -70 -180t-203 -141z" />
<glyph unicode="&#x201c;" horiz-adv-x="1139" d="M394 1063q0 59 31 121t92 113q42 35 146 90l23 -31q-76 -31 -130 -93q-26 -30 -26 -73q0 -20 5 -33q3 -7 25.5 -33.5t28.5 -39.5q7 -17 7 -34q0 -42 -30 -73.5t-72 -31.5q-41 0 -70.5 32.5t-29.5 85.5zM852 1062q0 86 62 168t211 150l20 -24q-101 -56 -129 -92.5 t-28 -70.5q0 -21 7 -36q3 -8 25.5 -34t27.5 -36q7 -17 7 -35q0 -44 -30 -75.5t-72 -31.5t-71.5 31.5t-29.5 85.5z" />
<glyph unicode="&#x201d;" horiz-adv-x="1139" d="M373 982q101 55 129 91t28 70q0 20 -7 35q-3 8 -25.5 34t-27.5 36q-7 16 -7 34q0 43 30 74t71 31q43 0 72.5 -31.5t29.5 -86.5q0 -197 -273 -323zM832 983q75 30 129 92q27 30 27 71q0 20 -6 33q-2 7 -24.5 33t-28.5 38q-8 17 -8 35q0 41 30.5 72t72.5 31 q41 0 70.5 -32.5t29.5 -85.5q0 -60 -31 -122t-92 -112q-42 -35 -147 -91z" />
<glyph unicode="&#x201e;" horiz-adv-x="1139" d="M30 -225q101 55 129 91t28 70q0 20 -7 36q-3 7 -25.5 33t-27.5 36q-7 16 -7 34q0 43 30 74.5t71 31.5q43 0 72.5 -32t29.5 -87q0 -197 -273 -323zM489 -224q75 30 129 92q27 30 27 71q0 20 -6 33q-2 7 -24.5 33t-28.5 38q-8 17 -8 35q0 41 30.5 72t72.5 31 q41 0 70.5 -32.5t29.5 -85.5q0 -60 -31 -121.5t-91 -112.5q-43 -35 -148 -91z" />
<glyph unicode="&#x2022;" horiz-adv-x="717" d="M173 677q0 104 73 177.5t178 73.5q104 0 177.5 -73.5t73.5 -177.5t-73.5 -177.5t-177.5 -73.5t-177.5 73.5t-73.5 177.5z" />
<glyph unicode="&#x2026;" horiz-adv-x="1821" d="M266 83q0 47 32.5 79t78.5 32q47 0 79 -32.5t32 -78.5t-32.5 -78.5t-78.5 -32.5t-78.5 32.5t-32.5 78.5zM795 83q0 47 32.5 79t78.5 32q47 0 79 -32.5t32 -78.5t-32.5 -78.5t-78.5 -32.5t-78.5 32.5t-32.5 78.5zM1324 83q0 47 32.5 79t78.5 32q47 0 79 -32.5t32 -78.5 t-32.5 -78.5t-78.5 -32.5t-78.5 32.5t-32.5 78.5z" />
<glyph unicode="&#x202f;" horiz-adv-x="360" />
<glyph unicode="&#x2039;" horiz-adv-x="682" d="M116 443l467 477h55l-341 -477l111 -474h-43z" />
<glyph unicode="&#x203a;" horiz-adv-x="682" d="M46 -31l340 478l-110 473h43l249 -473l-468 -478h-54z" />
<glyph unicode="&#x205f;" horiz-adv-x="450" />
<glyph unicode="&#x20ac;" d="M17 576l22 78h90l5 16q8 30 21 67h-92l22 78h101q102 237 274 391q198 178 427 178q171 0 314 -88l-85 -299h-39q11 57 11 105q0 216 -220 216q-158 0 -298 -167q-109 -130 -190 -336h532l-22 -78h-538q-15 -42 -27 -83h542l-22 -78h-540q-31 -122 -31 -228 q0 -288 207 -288q134 0 244 69q66 41 182 156l25 -20q-125 -136 -212 -194q-142 -95 -303 -95q-331 0 -331 381q0 101 25 219h-94z" />
<glyph unicode="&#x2122;" horiz-adv-x="2007" d="M190 1155l21 201h728l22 -201h-34q-10 72 -52.5 106.5t-141.5 34.5h-75v-579q0 -84 20 -106.5t86 -25.5v-36h-374v36q65 6 82.5 27.5t17.5 103.5v580h-76q-95 0 -135 -31.5t-55 -109.5h-34zM1030 549v36q56 0 75.5 10t28.5 31t9 90v466q0 76 -8.5 96t-28.5 30.5t-76 10.5 v37h286l273 -572l265 572h279v-37q-56 -1 -74.5 -11t-27.5 -32t-9 -92v-468q0 -85 19 -106t92 -25v-36h-398v36q59 1 79.5 12t30 32t9.5 86v492l-307 -658h-32l-308 649v-482q0 -68 8.5 -88.5t27 -31.5t57.5 -11h36v-36h-306z" />
<glyph unicode="&#x25fc;" horiz-adv-x="905" d="M0 0v905h905v-905h-905z" />
<glyph unicode="&#xfb01;" d="M-387 -344q0 32 26.5 56.5t63.5 24.5q26 0 44 -16.5t18 -37.5q0 -20 -17.5 -37.5t-21.5 -25.5l2 -7q4 -5 14 -9t21 -4q64 0 113 45q82 74 131 214q9 25 141 535l107 423h-178l17 64h38q67 0 112 26q26 17 51 66q107 212 159 280.5t147.5 118.5t208.5 50q110 0 162 -41 t52 -99q0 -41 -23.5 -65t-57.5 -24q-33 0 -58 22q-19 17 -19 45q0 21 17.5 44t17.5 31q0 13 -16 24q-24 17 -66 17q-80 0 -158.5 -50.5t-126 -134t-108.5 -310.5h263q108 0 149 4.5t92 19.5h29l-201 -706q-18 -61 -18 -85q0 -10 8.5 -18.5t17.5 -8.5q19 0 41 16 q44 31 115 124l37 -28q-91 -126 -179 -184q-61 -39 -111 -39q-43 0 -69 24t-26 59q0 34 25 118l143 498q21 74 21 98q0 11 -6 19q-12 15 -31 21q-14 4 -76 4h-241l-110 -441q-55 -219 -122 -386.5t-148.5 -263t-164.5 -140.5q-53 -28 -110 -28q-64 0 -108 36q-33 27 -33 62z " />
<glyph unicode="&#xfb02;" d="M-387 -346q0 36 26 61t63 25q30 0 49 -17.5t19 -37.5q0 -19 -22 -39q-11 -11 -14 -16l-2 -6q0 -7 8 -14q11 -8 27 -8q62 0 107 40q82 74 134 217q39 105 147 538l106 420h-179l20 64h41q77 0 107 17t56 71q125 263 242 358t270 95q41 0 72 -8t81 -32q43 2 64 10t51 30h40 l-359 -1221q-16 -56 -16 -82q0 -12 8 -20.5t19 -8.5q19 0 43 17q53 38 113 120l37 -26q-93 -130 -179 -186q-61 -39 -111 -39q-43 0 -68.5 24.5t-25.5 63.5t22 114l187 639h-378l-113 -443q-117 -458 -260.5 -637t-295.5 -179q-65 0 -100.5 29t-35.5 67zM435 881h380l94 323 q-25 26 -25 51q0 21 20 45.5t20 33.5q0 12 -16 22q-24 16 -75 16q-83 0 -160.5 -46.5t-124 -129.5t-113.5 -315z" />
</font>
</defs>
</svg>
